<?xml version="1.0" standalone="no"?>
<!DOCTYPE svg PUBLIC "-//W3C//DTD SVG 1.1//EN" "http://www.w3.org/Graphics/SVG/1.1/DTD/svg11.dtd">
<svg xmlns="http://www.w3.org/2000/svg"><metadata>This SVG WebFont was generated by YouWorkForThem.
Copyright (c) 2019 by Minor Praxis. All rights reserved.</metadata><defs><font horiz-adv-x="1249" id="ywftsvg"><font-face ascent="1624" bbox="-14 -494 1380 2066" cap-height="1434" descent="-424" font-family="" font-stretch="normal" font-weight="400" panose-1="2 0 0 9 0 0 0 0 0 0" underline-position="0" underline-thickness="0" unicode-range="U+0020-1F610" units-per-em="2048" x-height="1030"/><missing-glyph d="M1053 989q186 -113 186 -274.5t-186 -272.5q-178 -109 -428 -108q-252 0 -430 108q-184 109 -185 273q0 162 185 274q180 106 430 107q248 -1 428 -107zM272 715q0 -47 13 -90h184q-4 57 -4 90t4 90h-184q-13 -43 -13 -90zM772 860h166q-68 129 -221 170q35 -53 55 -170z M625 1040q-57 0 -93 -180h185q-37 180 -92 180zM727 714.5q0 61.5 -4 90.5h-199q-4 -57 -4 -90t4 -90h199q4 28 4 89.5zM309 860h166q12 68 31 115q4 16 24 55q-151 -41 -221 -170zM475 569h-166q70 -131 221 -168q-18 31 -24 54q-19 46 -31 114zM625 389q55 0 92 180h-185 q36 -180 93 -180zM938 569h-166q-25 -123 -55 -168q151 37 221 168zM778 625h185q12 43 12 90t-12 90h-185q4 -29 4 -90t-4 -90zM1161 805h-141q10 -47 10 -90t-10 -90h141q23 45 23 90t-23 90zM893 999q2 -2 8 -7t10 -7q57 -53 88 -125h125q-79 94 -231 139zM125 860h123 q31 72 88 125q2 2 8 7t10 7q-155 -45 -229 -139zM227 805h-141q-20 -41 -20 -90t20 -90h141q-10 47 -10 90t10 90zM354 430q-4 2 -10 7t-8 7q-57 53 -88 125h-123q75 -90 229 -139zM1024 489q53 29 100 80h-125q-31 -72 -88 -125q-4 -2 -10 -7t-8 -7q84 28 131 59z"/><glyph d="M1053 989q186 -113 186 -274.5t-186 -272.5q-178 -109 -428 -108q-252 0 -430 108q-184 109 -185 273q0 162 185 274q180 106 430 107q248 -1 428 -107zM272 715q0 -47 13 -90h184q-4 57 -4 90t4 90h-184q-13 -43 -13 -90zM772 860h166q-68 129 -221 170q35 -53 55 -170z M625 1040q-57 0 -93 -180h185q-37 180 -92 180zM727 714.5q0 61.5 -4 90.5h-199q-4 -57 -4 -90t4 -90h199q4 28 4 89.5zM309 860h166q12 68 31 115q4 16 24 55q-151 -41 -221 -170zM475 569h-166q70 -131 221 -168q-18 31 -24 54q-19 46 -31 114zM625 389q55 0 92 180h-185 q36 -180 93 -180zM938 569h-166q-25 -123 -55 -168q151 37 221 168zM778 625h185q12 43 12 90t-12 90h-185q4 -29 4 -90t-4 -90zM1161 805h-141q10 -47 10 -90t-10 -90h141q23 45 23 90t-23 90zM893 999q2 -2 8 -7t10 -7q57 -53 88 -125h125q-79 94 -231 139zM125 860h123 q31 72 88 125q2 2 8 7t10 7q-155 -45 -229 -139zM227 805h-141q-20 -41 -20 -90t20 -90h141q-10 47 -10 90t10 90zM354 430q-4 2 -10 7t-8 7q-57 53 -88 125h-123q75 -90 229 -139zM1024 489q53 29 100 80h-125q-31 -72 -88 -125q-4 -2 -10 -7t-8 -7q84 28 131 59z" glyph-name=".notdef"/><glyph glyph-name="glyph1" horiz-adv-x="0"/><glyph glyph-name="glyph2" horiz-adv-x="681"/><glyph glyph-name="space" unicode=" "/><glyph d="M469 0v289h309v-289h-309zM535 469l-23 987h223l-22 -987h-178z" glyph-name="exclam" unicode="!"/><glyph d="M379 805l-45 649h225l-45 -649h-135zM737 805l-45 649h226l-46 -649h-135z" glyph-name="quotedbl" unicode="&quot;"/><glyph d="M344 1030l55 404h168l-55 -404h281l55 404h168l-55 -404h245v-145h-266l-45 -336h244v-146h-265l-55 -403h-168l56 403h-281l-55 -403h-168l55 403h-217v146h238l45 336h-215v145h235zM727 549l45 336h-280l-46 -336h281z" glyph-name="numbersign" unicode="#"/><glyph d="M680 -18v-170h-113v170q-207 16 -344 138t-137 329h190q0 -117 84 -198t207 -99v495q-78 12 -129 23.5t-115.5 39t-101.5 65.5t-63.5 103.5t-26.5 151.5q0 176 128 290t308 132v207h113v-207q195 -18 327 -144t132 -323h-191q0 119 -75.5 202t-192.5 101v-477 q72 -12 117 -22.5t108.5 -30t102.5 -47t77.5 -69.5t57 -101.5t18.5 -137.5q0 -188 -140 -297.5t-341 -123.5zM567 831v457q-113 -12 -185.5 -78.5t-72.5 -179.5q0 -90 66.5 -133t191.5 -66zM680 631v-481q291 23 291 253q0 109 -74 156t-217 72z" glyph-name="dollar" unicode="$"/><glyph d="M530 1163q0 76 -50 127t-128 51t-127 -51t-49 -127t49 -128t127 -52t128 52t50 128zM664 1163q0 -133 -85 -223t-226.5 -90t-226.5 90t-85 223t85 223.5t226.5 90.5t226.5 -90.5t85 -223.5zM1206 293q0 -133 -85 -223t-226 -90t-226 90t-85 223t85 223t226 90t226 -90 t85 -223zM895 473q-78 0 -128 -52t-50 -128t50 -127t128 -51t127 51t49 127t-49 128t-127 52zM131 399l985 822l78 -93l-985 -821z" glyph-name="percent" unicode="%"/><glyph d="M999 268l226 -268h-224l-112 131q-164 -152 -404 -151q-195 0 -321.5 108.5t-126.5 292.5q0 137 73.5 234.5t204.5 185.5q-113 131 -141 186q-41 82 -41 178q0 127 100.5 220.5t268.5 93.5t266 -87t98 -227q0 -127 -75.5 -216t-212.5 -179l299 -356q57 133 57 303h178 q0 -263 -113 -449zM311 1165q0 -37 19.5 -80t32 -61t58.5 -70.5t48 -54.5q106 70 161.5 130.5t55.5 135.5q0 70 -50 113t-134 43q-86 0 -138.5 -44t-52.5 -112zM485 137q174 0 293 125l-352 410q-209 -139 -209 -291q0 -111 74.5 -177.5t193.5 -66.5z" glyph-name="ampersand" unicode="&amp;"/><glyph d="M557 805l-45 649h225l-45 -649h-135z" glyph-name="quotesingle" unicode="'"/><glyph d="M883 -201l-97 -67q-172 182 -265 435t-93 505q0 254 93 507t265 435l97 -68q-299 -399 -299 -874q0 -474 299 -873z" glyph-name="parenleft" unicode="("/><glyph d="M457 -268l-99 67q299 395 299 873q0 479 -299 874l99 68q172 -182 265 -435t93 -507q0 -252 -93 -505t-265 -435z" glyph-name="parenright" unicode=")"/><glyph d="M512 1030l-283 125l90 156l250 -185l-34 308h178l-33 -308l248 185l90 -156l-283 -125l283 -123l-90 -155l-248 182l33 -307h-178l34 307l-250 -182l-90 155z" glyph-name="asterisk" unicode="*"/><glyph d="M86 539v155h459v459h157v-459h459v-155h-459v-461h-157v461h-459z" glyph-name="plus" unicode="+"/><glyph d="M457 -358v135q68 0 111.5 65.5t43.5 157.5h-155v287h309v-287q0 -162 -86 -260t-223 -98z" glyph-name="comma" unicode=","/><glyph d="M266 700h717v-168h-717v168z" glyph-name="hyphen" unicode="-"/><glyph d="M784 0h-309v287h309v-287z" glyph-name="period" unicode="."/><glyph d="M231 -20h-155l940 1499h158z" glyph-name="slash" unicode="/"/><glyph d="M938 716.5q0 577.5 -313 577.5q-315 0 -315.5 -577.5t315.5 -577.5q313 0 313 577.5zM1116 717q0 -737 -491 -737q-494 0 -494 737t494 737q491 0 491 -737z" glyph-name="zero" unicode="0"/><glyph d="M578 158v1075l-353 -182v178l353 205h178v-1276h381v-158h-940v158h381z" glyph-name="one" unicode="1"/><glyph d="M907 762l-493 -604h649v-158h-873v158l582 694q31 35 54.5 98.5t23.5 102.5q0 111 -63.5 175t-178.5 64q-106 0 -172.5 -62.5t-66.5 -199.5h-179q0 178 120 301t298 123q168 0 289 -107.5t121 -293.5q0 -158 -111 -291z" glyph-name="two" unicode="2"/><glyph d="M156 403h180q6 -123 76.5 -194.5t191.5 -71.5q123 0 202 72t79 192q0 125 -84 193t-215 68h-60v155h60q125 0 195.5 64.5t70.5 179.5q0 109 -62.5 170t-183.5 61q-117 0 -188.5 -62.5t-71.5 -199.5h-178q0 178 120 301t298 123q201 0 322.5 -111.5t121.5 -275.5 q0 -115 -60.5 -202t-152.5 -126q113 -35 179.5 -132t66.5 -204q0 -199 -118 -311t-318 -112q-207 0 -339 116.5t-132 306.5z" glyph-name="three" unicode="3"/><glyph d="M786 313h-677v183l538 938h191l-549 -963h497v426h179v-426h174v-158h-174v-313h-179v313z" glyph-name="four" unicode="4"/><glyph d="M420 662h-191l35 772h805v-158h-659l-17 -459q84 129 295 129q209 0 329 -139t120 -336q0 -223 -123 -357t-346 -134q-207 0 -335 114.5t-136 319.5h178q6 -131 81.5 -204t209.5 -73q143 0 217.5 93.5t74.5 240.5q0 139 -69.5 229.5t-200.5 90.5q-184 0 -268 -129z" glyph-name="five" unicode="5"/><glyph d="M344 784q35 74 125 121t188 47q203 0 335 -138t132 -353q0 -211 -132 -346t-335 -135q-492 0 -491.5 737t491.5 737q176 0 298 -102.5t128 -276.5h-178q-6 100 -75.5 158.5t-172.5 58.5q-297 0 -313 -508zM657 795q-137 0 -213.5 -94.5t-76.5 -235.5t76.5 -234.5 t213.5 -93.5q135 0 213 94.5t78 233.5t-78 234.5t-213 95.5z" glyph-name="six" unicode="6"/><glyph d="M479 0h-190l637 1276h-772v158h960v-158z" glyph-name="seven" unicode="7"/><glyph d="M879 748q215 -113 215 -351q0 -190 -137.5 -303.5t-334 -113.5t-332.5 113.5t-136 303.5q0 238 215 351q-182 104 -183 315q0 180 126 285.5t310.5 105.5t310.5 -105.5t126 -285.5q0 -211 -180 -315zM887 1057q0 106 -77 170.5t-187.5 64.5t-186.5 -64.5t-76 -171 t76 -173t186.5 -66.5t187.5 65.5t77 174.5zM623 670q-127 0 -210 -73t-83 -193.5t83 -193.5t210 -73q129 0 210.5 72t81.5 194q0 121 -81.5 194t-210.5 73z" glyph-name="eight" unicode="8"/><glyph d="M600 137q295 0 311 512q-35 -72 -126 -120t-187 -48q-203 0 -335 139.5t-132 354.5q0 211 132 345t337 134q489 0 490 -735q0 -739 -490 -739q-176 0 -299 102t-129 276h178q6 -102 77 -161.5t173 -59.5zM598 639q137 0 215 94t78 236q0 139 -78 231t-215 92t-213 -92 t-76 -231q0 -141 77 -235.5t212 -94.5z" glyph-name="nine" unicode="9"/><glyph d="M778 0h-309v287h309v-287zM471 743v287h309v-287h-309z" glyph-name="colon" unicode=":"/><glyph d="M469 743v287h309v-287h-309zM625 0h-156v287h309v-287q0 -162 -86 -260t-223 -98v135q68 0 112 65.5t44 157.5z" glyph-name="semicolon" unicode=";"/><glyph d="M973 88l-107 -108l-694 694l694 672l105 -107l-584 -565z" glyph-name="less" unicode="&lt;"/><glyph d="M131 489h985v-167h-985v167zM131 909h985v-168h-985v168z" glyph-name="equal" unicode="="/><glyph d="M1079 674l-694 -694l-109 108l586 586l-581 565l104 107z" glyph-name="greater" unicode=">"/><glyph d="M352 1030h-180q0 178 125 313.5t321 135.5q201 0 325 -116t124 -288q0 -84 -29.5 -147.5t-59.5 -92t-89.5 -73.5t-90 -74t-60 -92.5t-29.5 -146.5h-181q0 90 17.5 157.5t55.5 115.5t64.5 71.5t77.5 60.5l2 2q49 37 74 57.5t47.5 64.5t22.5 97q0 106 -72 176t-199 70 q-123 0 -194.5 -90t-71.5 -201zM463 287h309v-287h-309v287z" glyph-name="question" unicode="?"/><glyph d="M624.5 1479q278.5 0 419 -179.5t140.5 -492.5v-516h-101l-39 108q-98 -190 -321 -190q-178 0 -270.5 132t-92.5 353t93.5 354.5t269.5 133.5q162 0 258 -103q-96 242 -356 242q-207 0 -305.5 -143.5t-98.5 -370.5v-180q0 -246 98.5 -402.5t305.5 -156.5q90 0 157 30v-168 q-82 -20 -157 -20q-279 0 -420.5 191.5t-141.5 525.5v180q0 313 141.5 492.5t420 179.5zM782 360q123 0 183.5 88.5t60.5 246t-61.5 246.5t-184.5 89q-244 0 -243 -336q0 -156 61 -245t184 -89z" glyph-name="at" unicode="@"/><glyph d="M41 0l471 1434h203l491 -1434h-178l-147 449h-519l-141 -449h-180zM614 1255l-202 -649h415z" glyph-name="A" unicode="A"/><glyph d="M870 752q102 -37 163 -135.5t61 -213.5q0 -193 -127 -298t-322 -105h-491v1434h491q178 0 302 -102.5t124 -278.5q0 -102 -52.5 -185t-148.5 -116zM915 420q0 115 -80.5 183.5t-189.5 68.5h-313v-504h313q117 0 193.5 58.5t76.5 193.5zM881 1052.5q0 112.5 -64.5 169 t-171.5 56.5h-313v-449h313q106 0 171 55.5t65 168z" glyph-name="B" unicode="B"/><glyph d="M973 449h184q-29 -207 -157 -338t-369 -131q-123 0 -219.5 43t-155.5 112.5t-97 166.5t-52.5 198.5t-14.5 216t14.5 216t52.5 199t97 167t155.5 112.5t219.5 43q242 0 369.5 -131t156.5 -338h-184q-61 303 -342 303q-358 0 -358.5 -571.5t358.5 -571.5q281 1 342 304z " glyph-name="C" unicode="C"/><glyph d="M1118 719q0 -131 -12 -231.5t-48 -195.5t-94.5 -156.5t-155.5 -98.5t-228 -37h-449v1434h449q131 0 228 -37t155.5 -98.5t94.5 -155.5t48 -194.5t12 -229.5zM928 717q0 92 -6.5 161.5t-27 146.5t-57 126t-102 82t-155.5 33h-269v-1098h269q90 0 155.5 32.5t102 82t57 126 t27 146.5t6.5 162z" glyph-name="D" unicode="D"/><glyph d="M1096 168v-168h-942v1434h942v-158h-762v-447h627v-157h-627v-504h762z" glyph-name="E" unicode="E"/><glyph d="M334 672v-672h-180v1434h942v-158h-762v-447h627v-157h-627z" glyph-name="F" unicode="F"/><glyph d="M993 594h-278v156h446v-750h-133l-35 201q-45 -90 -144 -155.5t-224 -65.5q-123 0 -219.5 43t-156 112.5t-97 166.5t-52 198.5t-14.5 216t14.5 216t52 199t97 167t156 112.5t219.5 43q242 0 370.5 -131t155.5 -338h-184q-61 303 -342 303q-358 0 -359 -571 q0 -78 7.5 -146.5t30 -150.5t61 -139.5t108.5 -96.5t162 -39q358 0 358 449z" glyph-name="G" unicode="G"/><glyph d="M131 0v1434h180v-605h627v605h180v-1434h-180v672h-627v-672h-180z" glyph-name="H" unicode="H"/><glyph d="M209 1434h829v-166h-325v-1102h325v-166h-829v166h326v1102h-326v166z" glyph-name="I" unicode="I"/><glyph d="M117 449h178q0 -139 68.5 -221.5t199.5 -82.5t199.5 82t68.5 222v985h181v-985q0 -203 -125 -336t-323.5 -133t-322.5 133t-124 336z" glyph-name="J" unicode="J"/><glyph d="M604 829l604 -829h-200l-516 717l-179 -178v-539h-180v1434h180v-682l682 682h213z" glyph-name="K" unicode="K"/><glyph d="M1174 168v-168h-898v1434h181v-1266h717z" glyph-name="L" unicode="L"/><glyph d="M289 1120v-1120h-180v1434h235l281 -830l280 830h236v-1434h-180v1120l-246 -671h-180z" glyph-name="M" unicode="M"/><glyph d="M311 0h-180v1434h236l571 -1188v1188h180v-1434h-235l-572 1188v-1188z" glyph-name="N" unicode="N"/><glyph d="M84 716.5q0 114.5 14.5 216t52 199t97 167t156 112.5t219.5 43q152 0 261 -62.5t167.5 -172t84 -233.5t25.5 -269.5t-25.5 -269t-84 -233.5t-168 -172t-260.5 -62q-123 0 -219.5 43t-156 112.5t-97 166.5t-52 198.5t-14.5 216zM622.5 1288q-358.5 0 -358.5 -571.5 t358.5 -571.5t358.5 571.5t-358.5 571.5z" glyph-name="O" unicode="O"/><glyph d="M375 1276v-524h356q133 0 213 73.5t80 188t-80 188.5t-213 74h-356zM375 594v-594h-180v1434h536q215 0 343 -103.5t128 -316.5t-128 -316.5t-343 -103.5h-356z" glyph-name="P" unicode="P"/><glyph d="M92 716.5q0 145.5 25.5 268.5t83 233.5t167 173t261.5 62.5q123 0 219 -43t155.5 -112.5t97.5 -167t52 -199t14 -215.5q0 -309 -104 -496l131 -153l-147 -113l-97 129q-127 -104 -321 -104q-152 0 -261.5 62t-167 173t-83 233.5t-25.5 268zM270 716.5 q0 -571.5 359 -571.5q131 0 215 80l-236 314l111 88l217 -256q51 131 51 346q0 571 -358.5 571t-358.5 -571.5z" glyph-name="Q" unicode="Q"/><glyph d="M858 608l324 -608h-205l-315 596h-308v-596h-180v1434h537q215 0 344 -102.5t129 -311.5q0 -342 -326 -412zM354 1278v-526h357q133 0 213 75.5t80 192.5q0 115 -80 186.5t-213 71.5h-357z" glyph-name="R" unicode="R"/><glyph d="M625 -20q-225 0 -382 122.5t-157 346.5h190q0 -131 104.5 -217.5t244.5 -86.5q346 0 346 258q0 53 -21.5 92.5t-48.5 62t-83 40.5t-93 24.5t-111 18.5h-6q-66 10 -99.5 16.5t-93 20.5t-92 30.5t-74.5 46t-63.5 65.5t-38 90.5t-16.5 119.5q0 190 148.5 307t345.5 117 q215 0 365.5 -128t150.5 -341h-191q0 133 -95 220t-230 87q-131 0 -222.5 -67.5t-91.5 -194.5q0 -55 24.5 -93t81 -61.5t101.5 -35t133 -25.5q98 -16 153.5 -28.5t133.5 -43t120 -69.5t72.5 -108.5t30.5 -162.5q0 -203 -159.5 -313t-376.5 -110z" glyph-name="S" unicode="S"/><glyph d="M1206 1434v-156h-491v-1278h-180v1278h-492v156h1163z" glyph-name="T" unicode="T"/><glyph d="M131 449v985h180v-985q0 -133 88 -218.5t226 -85.5q135 0 224 85t89 219v985h180v-985q0 -199 -145.5 -334t-348 -135t-348 135t-145.5 334z" glyph-name="U" unicode="U"/><glyph d="M737 0h-225l-446 1434h198l361 -1231l360 1231h199z" glyph-name="V" unicode="V"/><glyph d="M66 1434h178l45 -1121l246 672h180l246 -672l45 1121h178l-101 -1434h-178l-280 829l-281 -829h-178z" glyph-name="W" unicode="W"/><glyph d="M973 0l-348 571l-349 -571h-200l448 717l-448 717h200l349 -560l348 560h201l-449 -717l449 -717h-201z" glyph-name="X" unicode="X"/><glyph d="M715 582v-582h-180v582l-525 852h199l416 -684l413 684h201z" glyph-name="Y" unicode="Y"/><glyph d="M1141 0h-1032v180l806 1098h-784v156h987v-179l-807 -1087h830v-168z" glyph-name="Z" unicode="Z"/><glyph d="M930 1546v-112h-314v-1567h314v-113h-449v1792h449z" glyph-name="bracketleft" unicode="["/><glyph d="M231 1479l943 -1499h-158l-940 1499h155z" glyph-name="backslash" unicode="\"/><glyph d="M631 1434h-314v112h449v-1792h-449v113h314v1567z" glyph-name="bracketright" unicode="]"/><glyph d="M702 1479l359 -627h-203l-233 436l-236 -436h-203l359 627h157z" glyph-name="asciicircum" unicode="^"/><glyph d="M131 0h985v-168h-985v168z" glyph-name="underscore" unicode="_"/><glyph d="M446 1483l404 -295l-55 -82l-439 237z" glyph-name="grave" unicode="`"/><glyph d="M848 498q-92 0 -137 -1t-117 -7.5t-108.5 -20.5t-76.5 -38.5t-56.5 -65.5t-16.5 -97q0 -131 186 -131q35 0 68 4t85 25.5t89 56.5t62.5 107t21.5 168zM618 1051q178 0 290 -113t112 -305v-365l55 -268h-157l-56 158q-43 -70 -143.5 -124t-204.5 -54q-172 0 -265 87 t-93 201q0 59 15 108.5t38.5 85.5t65.5 63.5t78 45t94.5 29.5t98.5 18.5t105.5 10.5t99 4h97.5q0 260 -232 260q-98 0 -164.5 -43t-74.5 -133h-170q0 156 125.5 245t285.5 89z" glyph-name="a" unicode="a"/><glyph d="M184 0v1454h174v-557q45 66 131 110t179 44q221 0 339.5 -156t118.5 -377q0 -223 -118.5 -380.5t-339.5 -157.5q-90 0 -178.5 39.5t-131.5 109.5l-14 -129h-160zM668 901q-92 0 -157 -37t-96.5 -98t-44 -121.5t-12.5 -126.5q0 -68 13.5 -128t44 -122.5t95 -99.5 t157.5 -37q137 0 207.5 110.5t70.5 276.5q0 162 -70.5 272.5t-207.5 110.5z" glyph-name="b" unicode="b"/><glyph d="M907 377h172q-10 -162 -133 -279.5t-315 -117.5q-213 0 -342 156.5t-129 381.5q0 223 129 378t342 155q193 0 315.5 -116t132.5 -276h-172q-49 242 -280 242q-145 0 -216 -102.5t-71 -280.5q0 -176 72.5 -281.5t218.5 -105.5q113 0 182 65.5t94 180.5z" glyph-name="c" unicode="c"/><glyph d="M881 1454h174v-1454h-160l-14 129q-43 -70 -131 -109.5t-181 -39.5q-219 0 -337.5 157.5t-118.5 380.5q0 141 47 259t153.5 196t255.5 78q92 0 179.5 -44t132.5 -110v557zM569 901q-135 0 -205.5 -110.5t-70.5 -272.5q0 -166 69.5 -276.5t206.5 -110.5q92 0 158 37 t96.5 99.5t44 123t13.5 127.5q0 66 -13.5 126.5t-44 121.5t-96.5 98t-158 37z" glyph-name="d" unicode="d"/><glyph d="M893 307h180q-45 -158 -158.5 -242.5t-289.5 -84.5q-229 0 -350 141t-121 379q0 240 122.5 395.5t352.5 155.5q160 0 267.5 -81t153.5 -205t46 -282v-37h-764q0 -137 87 -226t210 -89q86 0 156.5 47t107.5 129zM334 590h581q0 127 -81.5 219t-208.5 92q-133 0 -210 -100 t-81 -211z" glyph-name="e" unicode="e"/><glyph d="M655 0h-172v887h-348v143h348q0 221 115 322.5t299 101.5q111 0 201 -20v-177q-33 16 -99.5 31t-101.5 15q-115 0 -178.5 -58.5t-63.5 -214.5h443v-143h-443v-887z" glyph-name="f" unicode="f"/><glyph d="M610 291q-109 0 -202 49q-23 -8 -38.5 -34.5t-15.5 -51.5q0 -41 46 -71.5t120 -30.5h90q494 0 494 -322t-494 -322q-184 0 -316 84t-132 244q0 76 32.5 123t96.5 88q-111 66 -95.5 177.5t130.5 174.5q-115 109 -115 273q0 166 114.5 272.5t284.5 106.5q162 0 271 -90 l110 182l146 -113l-170 -172q47 -82 47 -186q0 -166 -116 -273.5t-288 -107.5zM610 0h-90q-37 0 -55 2q-133 -37 -133 -160q0 -70 60.5 -127t217.5 -57q313 0 314 172q-1 170 -314 170zM610 901q-100 0 -166.5 -64.5t-66.5 -164.5q0 -98 66.5 -160.5t166.5 -62.5 q102 0 169 62t67 161q0 100 -67 164.5t-169 64.5z" glyph-name="g" unicode="g"/><glyph d="M199 0v1454h174v-557q43 74 133 114t194 40q164 0 257.5 -100.5t93.5 -278.5v-672h-179v627q0 125 -56 196.5t-171 71.5q-106 0 -170.5 -65.5t-83 -142.5t-18.5 -169v-518h-174z" glyph-name="h" unicode="h"/><glyph d="M1147 0h-963v141h396v746h-306v143h478v-889h395v-141zM549 1245v209h225v-209h-225z" glyph-name="i" unicode="i"/><glyph d="M346 1030h522v-1053q0 -219 -109.5 -320t-279.5 -101q-96 0 -178 20v176q82 -45 178 -45q104 0 160.5 68.5t56.5 201.5v910h-350v143zM664 1245v209h225v-209h-225z" glyph-name="j" unicode="j"/><glyph d="M625 463l-191 -201v-262h-174v1454h174v-977l510 553h201l-408 -444l420 -586h-203z" glyph-name="k" unicode="k"/><glyph d="M1116 0h-962v141h395v1174h-305v139h477v-1313h395v-141z" glyph-name="l" unicode="l"/><glyph d="M922 1051q123 0 189.5 -89.5t66.5 -244.5v-717h-172v717q0 90 -28 134t-97 44q-72 0 -113 -79t-41 -189v-627h-172v717q0 90 -27.5 134t-97.5 44q-72 0 -113 -79t-41 -189v-627h-174v1030h160l14 -133q16 57 70.5 105.5t124.5 48.5q145 0 215 -154q33 63 95.5 108.5 t140.5 45.5z" glyph-name="m" unicode="m"/><glyph d="M373 1030l16 -178q43 94 131 146.5t180 52.5q182 0 274.5 -112t92.5 -312v-627h-174v627q0 137 -55.5 202.5t-173.5 65.5q-80 0 -136.5 -43t-85 -114.5t-41 -142.5t-12.5 -146v-449h-174v1030h158z" glyph-name="n" unicode="n"/><glyph d="M930 516q0 164 -79 274.5t-230 110.5q-150 0 -226 -110.5t-76 -274.5t77 -274.5t228.5 -110.5t228.5 110.5t77 274.5zM624.5 -20q-231.5 0 -356.5 154.5t-125 381.5t123 381t354.5 154t358.5 -154t127 -381t-125 -381.5t-356.5 -154.5z" glyph-name="o" unicode="o"/><glyph d="M369 -424h-174v1454h159l15 -129q43 70 131 110t178 40q221 0 340 -158t119 -381q0 -221 -119 -376.5t-340 -155.5q-92 0 -178 45t-131 110v-559zM678 131q137 0 207.5 109.5t70.5 271.5q0 166 -69.5 277.5t-206.5 111.5q-74 0 -131 -25.5t-91 -65.5t-54.5 -94 t-27.5 -102.5t-7 -101.5q0 -66 13 -126t44 -120.5t95.5 -97.5t156.5 -37z" glyph-name="p" unicode="p"/><glyph d="M1055 1030v-1454h-174v559q-45 -66 -132 -110.5t-180 -44.5q-150 0 -256 77.5t-153 195.5t-47 259q0 223 118.5 381t337.5 158q92 0 180.5 -40t131.5 -110v129h174zM569 131q92 0 158 37t96.5 97.5t44 120.5t13.5 126q0 51 -7.5 101.5t-29 103.5t-55 93t-91 65.5 t-131.5 25.5q-137 0 -205.5 -111.5t-68.5 -277.5q0 -162 69.5 -271.5t206.5 -109.5z" glyph-name="q" unicode="q"/><glyph d="M455 0h-172v1030h157l15 -178q43 92 144 145.5t200 53.5q158 0 247 -87t107 -247h-170q-8 90 -71.5 133t-157.5 43q-88 0 -150.5 -43t-92.5 -113.5t-43 -141.5t-13 -146v-449z" glyph-name="r" unicode="r"/><glyph d="M631 895q-92 0 -161 -37t-69 -119q0 -39 19.5 -65.5t63.5 -42t79 -22.5t105 -17q55 -8 81.5 -13.5t78 -17.5t78 -24.5t62.5 -35t54 -50t31.5 -68.5t13.5 -92q0 -106 -69.5 -180t-164 -102.5t-202.5 -28.5q-172 0 -310.5 93t-138.5 263h174q0 -109 79 -157t196 -48 q262 0 262 160q0 41 -20.5 70.5t-67.5 48t-85 26.5t-110 21q-74 12 -111.5 20t-98 29.5t-92.5 48.5t-56.5 74t-24.5 110q0 147 120 229.5t286 82.5q162 0 281.5 -88.5t119.5 -245.5h-176q0 80 -71.5 129t-155.5 49z" glyph-name="s" unicode="s"/><glyph d="M428 1030v313h174v-313h442v-143h-442v-484q0 -156 66.5 -214t195.5 -58q94 0 180 43v-174q-90 -20 -180 -20q-199 0 -317.5 101t-118.5 322v484h-346v143h346z" glyph-name="t" unicode="t"/><glyph d="M561 -20q-180 0 -272 111.5t-92 311.5v627h174v-627q0 -143 49 -207.5t178 -64.5q135 0 205.5 91t70.5 181v627h175v-1030h-160l-15 180q-43 -94 -131 -147t-182 -53z" glyph-name="u" unicode="u"/><glyph d="M725 0h-201l-403 1030h190l314 -850l313 850h190z" glyph-name="v" unicode="v"/><glyph d="M893 180l96 850h172l-139 -1030h-197l-200 582l-201 -582h-197l-141 1030h174l96 -850l201 584h135z" glyph-name="w" unicode="w"/><glyph d="M625 649l282 381h221l-378 -491l380 -539h-223l-282 414l-281 -414h-223l381 539l-379 491h221z" glyph-name="x" unicode="x"/><glyph d="M160 -424v172q78 -41 180 -41q111 0 156 115l67 168l-448 1040h202l338 -850l334 850h201l-508 -1208q-57 -133 -130 -199.5t-212 -66.5q-94 0 -180 20z" glyph-name="y" unicode="y"/><glyph d="M1051 141v-141h-852v158l626 729h-626v143h852v-133l-650 -756h650z" glyph-name="z" unicode="z"/><glyph d="M569 90v316q0 72 -66.5 111.5t-148.5 49.5v166q82 10 148.5 51t66.5 113v313q0 203 80 269.5t287 66.5v-112q-141 0 -186 -40t-45 -184v-313q0 -100 -54.5 -162.5t-140.5 -83.5q86 -20 140.5 -82.5t54.5 -162.5v-316q0 -143 45 -183t186 -40v-113q-207 0 -287 66.5 t-80 269.5z" glyph-name="braceleft" unicode="{"/><glyph d="M702 -246h-157v1792h157v-1792z" glyph-name="bar" unicode="|"/><glyph d="M678 406v-316q0 -203 -80 -269.5t-285 -66.5v113q141 0 185.5 39t44.5 184v316q0 100 54 162.5t140 82.5q-86 20 -140 83t-54 163v313q0 145 -44 184.5t-186 39.5v112q205 0 285 -66.5t80 -269.5v-313q0 -72 67.5 -113t149.5 -51v-166q-82 -10 -149.5 -50.5t-67.5 -110.5 z" glyph-name="braceright" unicode="}"/><glyph d="M215 510l-106 117q92 90 161.5 121.5t151.5 31.5q88 0 218 -65.5t185 -65.5q92 0 207 107l107 -117q-94 -94 -162 -126t-152 -32q-88 0 -217 65.5t-186 65.5q-107 0 -207 -102z" glyph-name="asciitilde" unicode="~"/><glyph d="M735 -426h-223l23 1001h178zM778 743h-309v287h309v-287z" glyph-name="exclamdown" unicode="¡"/><glyph d="M911 580h172q-8 -147 -111.5 -260t-269.5 -134v-186h-135v186q-184 25 -293.5 176.5t-109.5 358.5q0 205 108.5 353.5t294.5 172.5v187h135v-187q166 -20 269.5 -130.5t111.5 -254.5h-172q-41 195 -209 232v-754q166 35 209 240zM567 340v756q-223 -45 -223 -375 q0 -154 56 -255t167 -126z" glyph-name="cent" unicode="¢"/><glyph d="M963 291h174q0 -291 -353 -291h-632v158q178 0 178 133v332h-178v133h178v274q0 205 112.5 314.5t266 109.5t266 -109.5t112.5 -314.5h-174q0 137 -61 201.5t-143 64.5t-143.5 -64.5t-61.5 -201.5v-274h274v-133h-274v-332q0 -133 -129 -133h409q179 0 179 133z" glyph-name="sterling" unicode="£"/><glyph d="M1055 514q0 -143 -76 -250l182 -162l-123 -122l-161 186q-106 -74 -254 -74q-145 0 -252 74l-164 -186l-123 122l184 162q-76 106 -75 250q0 145 75 252l-182 162l123 123l162 -185q109 72 254 72t252 -72l163 185l123 -123l-184 -162q76 -107 76 -252zM622.5 256 q116.5 0 190.5 73.5t74 184.5t-73 185.5t-189.5 74.5t-190.5 -74.5t-74 -185.5t73 -184.5t189.5 -73.5z" glyph-name="currency" unicode="¤"/><glyph d="M713 336v-336h-178v336h-404v135h404v156h-404v135h318l-424 672h174l426 -672l426 672h174l-426 -672h317v-135h-403v-156h403v-135h-403z" glyph-name="yen" unicode="¥"/><glyph d="M545 920v626h157v-626h-157zM545 537h157v-627h-157v627z" glyph-name="brokenbar" unicode="¦"/><glyph d="M248 -135h158q0 -94 54 -152.5t154 -58.5q82 0 137.5 47t55.5 125q0 59 -46 121.5t-116 117t-151.5 119t-151.5 125t-116 139t-46 158.5q0 209 174 297q-78 109 -78 213q0 141 99.5 229.5t257.5 88.5t256 -98.5t98 -258.5h-158q0 94 -51 152.5t-145 58.5 q-82 0 -137.5 -47t-55.5 -125q0 -68 64.5 -142.5t157 -143t183.5 -142.5t155.5 -166t64.5 -186q0 -102 -47 -180t-129 -119q82 -106 82 -211q0 -141 -99.5 -229.5t-257.5 -88.5q-162 0 -264 98.5t-102 258.5zM348 606q0 -53 46 -115.5t98.5 -107.5t148.5 -121t141 -115 q115 70 115 189q0 72 -60.5 141.5t-193.5 170t-182 145.5q-113 -70 -113 -187z" glyph-name="section" unicode="§"/><glyph d="M541 1233h-203v201h203v-201zM909 1233h-200v201h200v-201z" glyph-name="dieresis" unicode="¨"/><glyph d="M624.5 1300q241.5 0 400.5 -159.5t159 -401t-159 -400.5t-400.5 -159t-401.5 159t-160 400.5t160 401t401.5 159.5zM624.5 293q194.5 0 320.5 126t126 320.5t-126 321.5t-320.5 127t-321.5 -127t-127 -321.5t127 -320.5t321.5 -126zM625 539q49 0 87 30.5t54 85.5h113 q-20 -106 -87 -161.5t-167 -55.5q-121 0 -195 81t-74 220q0 141 74 221t195 80q100 0 166.5 -55t87.5 -158h-113q-39 113 -139 113q-68 0 -113 -53t-45 -148q0 -92 44 -146t112 -54z" glyph-name="copyright" unicode="©"/><glyph d="M383 840q0 -106 141 -107q35 0 72 10.5t84 38t76.5 89t29.5 149.5q-72 0 -107.5 -1t-93 -5t-85 -16.5t-59 -31t-45 -51t-13.5 -75.5zM602 1454q139 0 229.5 -88t90.5 -240v-274l43 -225h-123l-45 125q-33 -55 -112 -98.5t-161 -43.5q-135 0 -208.5 69t-73.5 161 q0 59 20.5 106t48 77t78.5 50.5t90 30.5t105.5 15t102.5 6t99 1q0 205 -184 205q-76 0 -128 -33.5t-58 -105.5h-133q0 123 97 192.5t222 69.5z" glyph-name="ordfeminine" unicode="ª"/><glyph d="M643 1075l-313 -448l313 -447h-192l-336 447l336 448h192zM1092 1075l-314 -448l314 -447h-193l-336 447l336 448h193z" glyph-name="guillemotleft" unicode="«"/><glyph d="M958 543h-839v145h985v-463h-146v318z" glyph-name="logicalnot" unicode="¬"/><glyph d="M96 700h1055v-168h-1055v168z" glyph-name="uni00AD" unicode="­"/><glyph d="M63 739.5q0 241.5 160 401t401.5 159.5t400.5 -159.5t159 -401t-159 -400.5t-400.5 -159t-401.5 159t-160 400.5zM176 739.5q0 -194.5 127 -320.5t321.5 -126t320.5 126t126 320.5t-126 321.5t-320.5 127t-321.5 -127t-127 -321.5zM535 449h-113v581h237q88 0 142.5 -46 t54.5 -132q0 -121 -102 -162l102 -241h-113l-94 223h-114v-223zM535 942v-180h124q41 0 63.5 26.5t22.5 63.5t-21.5 62.5t-64.5 27.5h-124z" glyph-name="registered" unicode="®"/><glyph d="M903 1227h-559v145h559v-145z" glyph-name="macron" unicode="¯"/><glyph d="M624.5 1454q151.5 0 244 -92t92.5 -233.5t-92.5 -232.5t-244 -91t-244.5 91t-93 232.5t93 233.5t244.5 92zM624.5 948q77.5 0 127 52.5t49.5 127.5q0 78 -49.5 130.5t-127 52.5t-128 -53.5t-50.5 -129t50.5 -128t128 -52.5z" glyph-name="degree" unicode="°"/><glyph d="M1071 0h-895v145h895v-145zM696 813h375v-145h-375v-377h-145v377h-375v145h375v375h145v-375z" glyph-name="plusminus" unicode="±"/><glyph d="M860 827h-483v113l274 229q27 23 38 34t20.5 29.5t9.5 43.5q0 37 -28.5 62.5t-86 25.5t-86.5 -33t-29 -78h-122q0 104 66.5 164t171 60t174 -52.5t69.5 -148.5q0 -68 -31 -111t-90 -90l-170 -135h303v-113z" glyph-name="uni00B2" unicode="²"/><glyph d="M487 1253h-122q0 104 66.5 164t172.5 60q104 0 173 -52.5t69 -148.5q0 -41 -21.5 -76t-62.5 -47q47 -14 72.5 -54t25.5 -89q0 -104 -73.5 -154.5t-182.5 -50.5q-106 0 -172.5 59.5t-71.5 163.5h123q2 -47 33 -78.5t88 -31.5q61 0 93 25.5t32 62.5q0 98 -145 98v102h4 q39 0 60.5 2t46 18.5t24.5 49.5q0 37 -28.5 62.5t-86 25.5t-87.5 -33t-30 -78z" glyph-name="uni00B3" unicode="³"/><glyph d="M434 1106l-57 82l403 295l90 -140z" glyph-name="acute" unicode="´"/><glyph d="M901 0l-14 180q-43 -94 -132 -147t-182 -53q-115 0 -190 43v-381h-174v1388h174v-627q0 -143 49 -207.5t178 -64.5q135 0 206 91t71 181v627h172v-1030h-158z" glyph-name="uni00B5" unicode="µ"/><glyph d="M481 1434h684v-146h-180v-1558h-145v1558h-213v-1558h-146v987q-156 0 -257 93t-101 265t101 265.5t257 93.5z" glyph-name="paragraph" unicode="¶"/><glyph d="M524 717h201v-201h-201v201z" glyph-name="periodcentered" unicode="·"/><glyph d="M629 0h157q84 -78 85 -179.5t-80.5 -174t-219.5 -72.5q-35 0 -71 6v166q35 -14 71 -14q76 0 103.5 48t11.5 109.5t-57 110.5z" glyph-name="cedilla" unicode="¸"/><glyph d="M750 1454v-627h-129v480l-162 -109v141l162 115h129z" glyph-name="uni00B9" unicode="¹"/><glyph d="M624.5 731q118.5 0 179 86t60.5 215t-62.5 216t-181 87t-178 -86t-59.5 -217q0 -129 61.5 -215t180 -86zM1004 1032q0 -178 -98.5 -299t-281 -121t-281.5 121t-99 299q0 180 98 301t280.5 121t282 -121t99.5 -301z" glyph-name="ordmasculine" unicode="º"/><glyph d="M604 180l314 447l-314 448h193l336 -448l-336 -447h-193zM156 180l313 447l-313 448h192l336 -448l-336 -447h-192z" glyph-name="guillemotright" unicode="»"/><glyph d="M92 399l985 822l78 -93l-985 -821zM997 135v-135h-129v135h-295v123l236 391h143l-235 -403h151v157h129v-157h113v-111h-113zM442 1454v-627h-129v480l-161 -109v141l161 115h129z" glyph-name="onequarter" unicode="¼"/><glyph d="M92 399l985 822l78 -93l-985 -821zM442 1454v-627h-129v480l-161 -109v141l161 115h129zM1145 0h-483v115l272 227q27 23 39 34t21.5 29.5t9.5 43.5q0 37 -30 63.5t-85 26.5q-57 0 -86 -33t-29 -80h-125q0 104 66.5 163.5t173.5 59.5q104 0 174 -51t70 -147 q0 -68 -31 -111t-90 -90l-172 -137h305v-113z" glyph-name="onehalf" unicode="½"/><glyph d="M997 135v-135h-129v135h-295v123l236 391h143l-235 -403h151v157h129v-157h113v-111h-113zM221 1253h-123q0 104 66.5 164t171.5 60q106 0 175 -51.5t69 -147.5q0 -41 -22.5 -77t-61.5 -48q45 -14 70.5 -54t25.5 -89q0 -104 -74 -154.5t-182 -50.5q-104 0 -171 59.5 t-73 165.5h123q4 -47 34 -79.5t87 -32.5q63 0 95 26.5t32 63.5q0 98 -148 98v100h7q37 0 58 2t46 19.5t25 50.5q0 37 -29 62.5t-86 25.5t-86 -33t-29 -80zM92 399l985 822l78 -93l-985 -821z" glyph-name="threequarters" unicode="¾"/><glyph d="M887 403h180q0 -178 -126 -313t-323 -135q-201 0 -323.5 115.5t-122.5 287.5q0 84 29.5 148.5t59.5 92.5t89.5 73t89 73.5t59 92t29.5 147.5h183q0 -90 -17.5 -157.5t-55.5 -115.5t-64.5 -72t-77.5 -60l-4 -2q-72 -49 -107 -95.5t-35 -124.5q0 -106 71 -175.5t197 -69.5 q123 0 196 89.5t73 200.5zM774 1147h-307v287h307v-287z" glyph-name="questiondown" unicode="¿"/><glyph d="M41 0l471 1434h203l491 -1434h-178l-147 449h-519l-141 -449h-180zM614 1255l-202 -649h415zM262 1886l404 -295l-56 -82l-436 238z" glyph-name="Agrave" unicode="À"/><glyph d="M41 0l471 1434h203l491 -1434h-178l-147 449h-519l-141 -449h-180zM614 1255l-202 -649h415zM1055 1747l-437 -238l-55 82l404 295z" glyph-name="Aacute" unicode="Á"/><glyph d="M41 0l471 1434h203l491 -1434h-178l-147 449h-519l-141 -449h-180zM614 1255l-202 -649h415zM688 1882l264 -268l-90 -90l-237 243l-238 -243l-90 90l264 268h127z" glyph-name="Acircumflex" unicode="Â"/><glyph d="M41 0l471 1434h203l491 -1434h-178l-147 449h-519l-141 -449h-180zM614 1255l-202 -649h415zM487 1702q-57 0 -133 -76l-80 88q125 123 213 123q53 0 142.5 -44t132.5 -44q66 0 133 68l80 -88q-117 -115 -213 -115q-53 0 -142.5 44t-132.5 44z" glyph-name="Atilde" unicode="Ã"/><glyph d="M41 0l471 1434h203l491 -1434h-178l-147 449h-519l-141 -449h-180zM614 1255l-202 -649h415zM541 1636h-201v201h201v-201zM909 1636h-200v201h200v-201z" glyph-name="Adieresis" unicode="Ä"/><glyph d="M743 1352l465 -1352h-180l-147 449h-519l-141 -449h-180l448 1360q-109 66 -108 199q0 102 66.5 167.5t177.5 65.5q109 0 175 -65.5t66 -167.5q0 -146 -123 -207zM625 1683q-57 0 -90 -34.5t-33 -90t32.5 -90t90.5 -34.5q55 0 87.5 34.5t32.5 90t-32.5 90t-87.5 34.5z M614 1255l-202 -649h415z" glyph-name="Aring" unicode="Å"/><glyph d="M1186 1434v-156h-447v-449h314v-157h-314v-504h447v-168h-627v449h-252l-139 -449h-182l473 1434h727zM356 606h203v645z" glyph-name="AE" unicode="Æ"/><glyph d="M739 -12q55 -59 66.5 -133t-18 -135.5t-103.5 -103.5t-174 -42q-35 0 -70 6v166q31 -14 70 -14q72 0 101.5 43t18 99t-47.5 108q-111 8 -198 54t-141.5 115.5t-89 165t-48 192.5t-13.5 208q0 115 14.5 216t52.5 198.5t97 167t155.5 112.5t219.5 43q242 0 369.5 -131 t156.5 -338h-184q-61 303 -342 303q-358 0 -358.5 -571.5t358.5 -571.5q281 0 342 304h184q-25 -182 -127.5 -307t-290.5 -154z" glyph-name="Ccedilla" unicode="Ç"/><glyph d="M1096 168v-168h-942v1434h942v-158h-762v-447h627v-157h-627v-504h762zM686 1591l-55 -82l-436 238l88 139z" glyph-name="Egrave" unicode="È"/><glyph d="M1096 168v-168h-942v1434h942v-158h-762v-447h627v-157h-627v-504h762zM618 1509l-55 82l404 295l88 -139z" glyph-name="Eacute" unicode="É"/><glyph d="M1096 168v-168h-942v1434h942v-158h-762v-447h627v-157h-627v-504h762zM952 1614l-90 -90l-237 243l-238 -243l-90 90l264 268h127z" glyph-name="Ecircumflex" unicode="Ê"/><glyph d="M1096 168v-168h-942v1434h942v-158h-762v-447h627v-157h-627v-504h762zM340 1636v201h201v-201h-201zM709 1636v201h200v-201h-200z" glyph-name="Edieresis" unicode="Ë"/><glyph d="M209 1434h829v-166h-325v-1102h325v-166h-829v166h326v1102h-326v166zM262 1886l404 -295l-56 -82l-436 238z" glyph-name="Igrave" unicode="Ì"/><glyph d="M209 1434h829v-166h-325v-1102h325v-166h-829v166h326v1102h-326v166zM1055 1747l-437 -238l-55 82l404 295z" glyph-name="Iacute" unicode="Í"/><glyph d="M209 1434h829v-166h-325v-1102h325v-166h-829v166h326v1102h-326v166zM688 1882l264 -268l-90 -90l-237 243l-238 -243l-90 90l264 268h127z" glyph-name="Icircumflex" unicode="Î"/><glyph d="M209 1434h829v-166h-325v-1102h325v-166h-829v166h326v1102h-326v166zM541 1636h-201v201h201v-201zM909 1636h-200v201h200v-201z" glyph-name="Idieresis" unicode="Ï"/><glyph d="M82 807h111v627h448q131 0 228.5 -37t155.5 -98.5t94 -155.5t48.5 -194.5t12.5 -229.5q0 -131 -12.5 -231.5t-48.5 -195.5t-94 -156.5t-155.5 -98.5t-228.5 -37h-448v639h-111v168zM373 807h426v-168h-426v-471h268q90 0 155.5 32.5t102.5 82t57.5 126t26.5 146.5t6 162 t-6 161.5t-26.5 146.5t-57.5 126t-102.5 82t-155.5 33h-268v-459z" glyph-name="Eth" unicode="Ð"/><glyph d="M311 0h-180v1434h236l571 -1188v1188h180v-1434h-235l-572 1188v-1188zM487 1702q-57 0 -133 -76l-80 88q125 123 213 123q53 0 142.5 -44t132.5 -44q66 0 133 68l80 -88q-117 -115 -213 -115q-53 0 -142.5 44t-132.5 44z" glyph-name="Ntilde" unicode="Ñ"/><glyph d="M84 716.5q0 114.5 14.5 216t52 199t97 167t156 112.5t219.5 43q152 0 261 -62.5t167.5 -172t84 -233.5t25.5 -269.5t-25.5 -269t-84 -233.5t-168 -172t-260.5 -62q-123 0 -219.5 43t-156 112.5t-97 166.5t-52 198.5t-14.5 216zM622.5 1288q-358.5 0 -358.5 -571.5 t358.5 -571.5t358.5 571.5t-358.5 571.5zM666 1659l-56 -80l-436 213l88 158z" glyph-name="Ograve" unicode="Ò"/><glyph d="M84 716.5q0 114.5 14.5 216t52 199t97 167t156 112.5t219.5 43q152 0 261 -62.5t167.5 -172t84 -233.5t25.5 -269.5t-25.5 -269t-84 -233.5t-168 -172t-260.5 -62q-123 0 -219.5 43t-156 112.5t-97 166.5t-52 198.5t-14.5 216zM622.5 1288q-358.5 0 -358.5 -571.5 t358.5 -571.5t358.5 571.5t-358.5 571.5zM639 1579l-55 80l403 291l88 -158z" glyph-name="Oacute" unicode="Ó"/><glyph d="M84 716.5q0 114.5 14.5 216t52 199t97 167t156 112.5t219.5 43q152 0 261 -62.5t167.5 -172t84 -233.5t25.5 -269.5t-25.5 -269t-84 -233.5t-168 -172t-260.5 -62q-123 0 -219.5 43t-156 112.5t-97 166.5t-52 198.5t-14.5 216zM622.5 1288q-358.5 0 -358.5 -571.5 t358.5 -571.5t358.5 571.5t-358.5 571.5zM952 1614l-90 -90l-237 243l-238 -243l-90 90l264 268h127z" glyph-name="Ocircumflex" unicode="Ô"/><glyph d="M84 716.5q0 114.5 14.5 216t52 199t97 167t156 112.5t219.5 43q152 0 261 -62.5t167.5 -172t84 -233.5t25.5 -269.5t-25.5 -269t-84 -233.5t-168 -172t-260.5 -62q-123 0 -219.5 43t-156 112.5t-97 166.5t-52 198.5t-14.5 216zM622.5 1288q-358.5 0 -358.5 -571.5 t358.5 -571.5t358.5 571.5t-358.5 571.5zM487 1702q-57 0 -133 -76l-80 88q125 123 213 123q53 0 142.5 -44t132.5 -44q66 0 133 68l80 -88q-117 -115 -213 -115q-53 0 -142.5 44t-132.5 44z" glyph-name="Otilde" unicode="Õ"/><glyph d="M84 716.5q0 114.5 14.5 216t52 199t97 167t156 112.5t219.5 43q152 0 261 -62.5t167.5 -172t84 -233.5t25.5 -269.5t-25.5 -269t-84 -233.5t-168 -172t-260.5 -62q-123 0 -219.5 43t-156 112.5t-97 166.5t-52 198.5t-14.5 216zM622.5 1288q-358.5 0 -358.5 -571.5 t358.5 -571.5t358.5 571.5t-358.5 571.5zM340 1636v201h201v-201h-201zM709 1636v201h200v-201h-200z" glyph-name="Odieresis" unicode="Ö"/><glyph d="M625 500l-439 -439l-104 105l438 436l-438 438l104 103l439 -436l436 436l104 -103l-438 -438l438 -436l-104 -105z" glyph-name="multiply" unicode="×"/><glyph d="M1083 1479l123 -97l-139 -190q94 -182 94 -475q0 -145 -25.5 -268t-83 -234t-167 -173t-260.5 -62q-223 0 -349 129l-112 -154l-123 96l139 191q-94 182 -94 475q0 145 25.5 269t84 233.5t168 172t261.5 62.5q217 0 348 -127zM266 717q0 -184 37 -305l561 768 q-86 106 -239 106q-359 0 -359 -569zM625 147q358 0 358 570q0 178 -39 307l-561 -770q86 -107 242 -107z" glyph-name="Oslash" unicode="Ø"/><glyph d="M131 449v985h180v-985q0 -133 88 -218.5t226 -85.5q135 0 224 85t89 219v985h180v-985q0 -199 -145.5 -334t-348 -135t-348 135t-145.5 334zM686 1591l-55 -82l-436 238l88 139z" glyph-name="Ugrave" unicode="Ù"/><glyph d="M131 449v985h180v-985q0 -133 88 -218.5t226 -85.5q135 0 224 85t89 219v985h180v-985q0 -199 -145.5 -334t-348 -135t-348 135t-145.5 334zM618 1509l-55 82l404 295l88 -139z" glyph-name="Uacute" unicode="Ú"/><glyph d="M131 449v985h180v-985q0 -133 88 -218.5t226 -85.5q135 0 224 85t89 219v985h180v-985q0 -199 -145.5 -334t-348 -135t-348 135t-145.5 334zM952 1614l-90 -90l-237 243l-238 -243l-90 90l264 268h127z" glyph-name="Ucircumflex" unicode="Û"/><glyph d="M131 449v985h180v-985q0 -133 88 -218.5t226 -85.5q135 0 224 85t89 219v985h180v-985q0 -199 -145.5 -334t-348 -135t-348 135t-145.5 334zM340 1636v201h201v-201h-201zM709 1636v201h200v-201h-200z" glyph-name="Udieresis" unicode="Ü"/><glyph d="M715 582v-582h-180v582l-525 852h199l416 -684l413 684h201zM1055 1747l-437 -238l-55 82l404 295z" glyph-name="Yacute" unicode="Ý"/><glyph d="M666 991h-252v-526h252q131 0 210.5 74.5t79.5 189.5t-79.5 188.5t-210.5 73.5zM666 309h-252v-309h-174v1434h174v-285h252q213 0 342 -103.5t129 -312.5q0 -215 -128 -319.5t-343 -104.5z" glyph-name="Thorn" unicode="Þ"/><glyph d="M815 799q133 -18 215 -126t82 -253q0 -201 -120 -320.5t-308 -119.5q-86 0 -154 20v147q55 -18 119 -18q129 0 210 75t81 216q0 174 -93 235.5t-272 61.5v141q139 0 212 51.5t73 188.5q0 109 -59.5 174t-169.5 65q-115 0 -177.5 -84t-62.5 -223v-1030h-174v1030 q0 211 109.5 330t304.5 119q184 0 294.5 -102.5t110.5 -268.5q0 -111 -61.5 -196.5t-159.5 -112.5z" glyph-name="germandbls" unicode="ß"/><glyph d="M848 498q-92 0 -137 -1t-117 -7.5t-108.5 -20.5t-76.5 -38.5t-56.5 -65.5t-16.5 -97q0 -131 186 -131q35 0 68 4t85 25.5t89 56.5t62.5 107t21.5 168zM618 1051q178 0 290 -113t112 -305v-365l55 -268h-157l-56 158q-43 -70 -143.5 -124t-204.5 -54q-172 0 -265 87 t-93 201q0 59 15 108.5t38.5 85.5t65.5 63.5t78 45t94.5 29.5t98.5 18.5t105.5 10.5t99 4h97.5q0 260 -232 260q-98 0 -164.5 -43t-74.5 -133h-170q0 156 125.5 245t285.5 89zM262 1483l404 -295l-56 -82l-436 237z" glyph-name="agrave" unicode="à"/><glyph d="M848 498q-92 0 -137 -1t-117 -7.5t-108.5 -20.5t-76.5 -38.5t-56.5 -65.5t-16.5 -97q0 -131 186 -131q35 0 68 4t85 25.5t89 56.5t62.5 107t21.5 168zM618 1051q178 0 290 -113t112 -305v-365l55 -268h-157l-56 158q-43 -70 -143.5 -124t-204.5 -54q-172 0 -265 87 t-93 201q0 59 15 108.5t38.5 85.5t65.5 63.5t78 45t94.5 29.5t98.5 18.5t105.5 10.5t99 4h97.5q0 260 -232 260q-98 0 -164.5 -43t-74.5 -133h-170q0 156 125.5 245t285.5 89zM1034 1343l-436 -237l-55 82l403 295z" glyph-name="aacute" unicode="á"/><glyph d="M848 498q-92 0 -137 -1t-117 -7.5t-108.5 -20.5t-76.5 -38.5t-56.5 -65.5t-16.5 -97q0 -131 186 -131q35 0 68 4t85 25.5t89 56.5t62.5 107t21.5 168zM618 1051q178 0 290 -113t112 -305v-365l55 -268h-157l-56 158q-43 -70 -143.5 -124t-204.5 -54q-172 0 -265 87 t-93 201q0 59 15 108.5t38.5 85.5t65.5 63.5t78 45t94.5 29.5t98.5 18.5t105.5 10.5t99 4h97.5q0 260 -232 260q-98 0 -164.5 -43t-74.5 -133h-170q0 156 125.5 245t285.5 89zM688 1479l264 -269l-90 -90l-237 244l-238 -244l-90 90l264 269h127z" glyph-name="acircumflex" unicode="â"/><glyph d="M848 498q-92 0 -137 -1t-117 -7.5t-108.5 -20.5t-76.5 -38.5t-56.5 -65.5t-16.5 -97q0 -131 186 -131q35 0 68 4t85 25.5t89 56.5t62.5 107t21.5 168zM618 1051q178 0 290 -113t112 -305v-365l55 -268h-157l-56 158q-43 -70 -143.5 -124t-204.5 -54q-172 0 -265 87 t-93 201q0 59 15 108.5t38.5 85.5t65.5 63.5t78 45t94.5 29.5t98.5 18.5t105.5 10.5t99 4h97.5q0 260 -232 260q-98 0 -164.5 -43t-74.5 -133h-170q0 156 125.5 245t285.5 89zM487 1298q-57 0 -133 -75l-80 88q125 123 213 123q53 0 142.5 -44t132.5 -44q66 0 133 67l80 -88 q-117 -115 -213 -115q-53 0 -142.5 44t-132.5 44z" glyph-name="atilde" unicode="ã"/><glyph d="M848 498q-92 0 -137 -1t-117 -7.5t-108.5 -20.5t-76.5 -38.5t-56.5 -65.5t-16.5 -97q0 -131 186 -131q35 0 68 4t85 25.5t89 56.5t62.5 107t21.5 168zM618 1051q178 0 290 -113t112 -305v-365l55 -268h-157l-56 158q-43 -70 -143.5 -124t-204.5 -54q-172 0 -265 87 t-93 201q0 59 15 108.5t38.5 85.5t65.5 63.5t78 45t94.5 29.5t98.5 18.5t105.5 10.5t99 4h97.5q0 260 -232 260q-98 0 -164.5 -43t-74.5 -133h-170q0 156 125.5 245t285.5 89zM541 1233h-201v201h201v-201zM909 1233h-200v201h200v-201z" glyph-name="adieresis" unicode="ä"/><glyph d="M848 498q-92 0 -137 -1t-117 -7.5t-108.5 -20.5t-76.5 -38.5t-56.5 -65.5t-16.5 -97q0 -131 186 -131q35 0 68 4t85 25.5t89 56.5t62.5 107t21.5 168zM618 1051q178 0 290 -113t112 -305v-365l55 -268h-157l-56 158q-43 -70 -143.5 -124t-204.5 -54q-172 0 -265 87 t-93 201q0 59 15 108.5t38.5 85.5t65.5 63.5t78 45t94.5 29.5t98.5 18.5t105.5 10.5t99 4h97.5q0 260 -232 260q-98 0 -164.5 -43t-74.5 -133h-170q0 156 125.5 245t285.5 89zM624.5 1554q96.5 0 155 -58t58.5 -146t-58.5 -146.5t-155 -58.5t-154.5 58.5t-58 146.5t58 146 t154.5 58zM624.5 1235q49.5 0 80 34t30.5 81q0 49 -30.5 81.5t-80 32.5t-80 -32.5t-30.5 -81.5q0 -47 30.5 -81t80 -34z" glyph-name="aring" unicode="å"/><glyph d="M698 901v-311h291q0 127 -82 219t-209 92zM520 590v311q-92 0 -161.5 -50t-102.5 -134h-178q47 176 178 255t352 79q285 0 422 -132.5t137 -435.5v-34h-469v-318q88 0 160 48t109 128h178q-57 -197 -185.5 -262t-351.5 -65h-88q-61 0 -98 1t-94.5 7t-92 17t-76.5 33.5 t-64.5 54.5t-39 80t-16.5 112q0 61 16.5 110t39 81t64.5 54.5t76.5 33.5t92 17.5t94.5 7.5t98 1zM219 289q0 -53 20.5 -87t61.5 -48.5t76 -18.5t90 -4h18h35v318h-31q-49 0 -75.5 -1.5t-69.5 -9.5t-65.5 -23.5t-41 -48t-18.5 -77.5z" glyph-name="ae" unicode="æ"/><glyph d="M735 -10q57 -59 69.5 -133t-16 -136.5t-102.5 -104.5t-176 -42q-35 0 -70 6v166q31 -14 70 -14q72 0 101.5 43t18 100t-47.5 107q-193 18 -307.5 170.5t-114.5 365.5q0 223 129 378t342 155q193 0 315.5 -116t132.5 -276h-172q-49 242 -280 242q-145 0 -216 -102.5 t-71 -280.5q0 -176 72.5 -281.5t218.5 -105.5q113 0 182.5 65.5t93.5 180.5h172q-8 -137 -101 -246.5t-243 -140.5z" glyph-name="ccedilla" unicode="ç"/><glyph d="M893 307h180q-45 -158 -158.5 -242.5t-289.5 -84.5q-229 0 -350 141t-121 379q0 240 122.5 395.5t352.5 155.5q160 0 267.5 -81t153.5 -205t46 -282v-37h-764q0 -137 87 -226t210 -89q86 0 156.5 47t107.5 129zM334 590h581q0 127 -81.5 219t-208.5 92q-133 0 -210 -100 t-81 -211zM283 1483l403 -295l-55 -82l-436 237z" glyph-name="egrave" unicode="è"/><glyph d="M893 307h180q-45 -158 -158.5 -242.5t-289.5 -84.5q-229 0 -350 141t-121 379q0 240 122.5 395.5t352.5 155.5q160 0 267.5 -81t153.5 -205t46 -282v-37h-764q0 -137 87 -226t210 -89q86 0 156.5 47t107.5 129zM334 590h581q0 127 -81.5 219t-208.5 92q-133 0 -210 -100 t-81 -211zM1055 1343l-437 -237l-55 82l404 295z" glyph-name="eacute" unicode="é"/><glyph d="M893 307h180q-45 -158 -158.5 -242.5t-289.5 -84.5q-229 0 -350 141t-121 379q0 240 122.5 395.5t352.5 155.5q160 0 267.5 -81t153.5 -205t46 -282v-37h-764q0 -137 87 -226t210 -89q86 0 156.5 47t107.5 129zM334 590h581q0 127 -81.5 219t-208.5 92q-133 0 -210 -100 t-81 -211zM688 1479l264 -269l-90 -90l-237 244l-238 -244l-90 90l264 269h127z" glyph-name="ecircumflex" unicode="ê"/><glyph d="M893 307h180q-45 -158 -158.5 -242.5t-289.5 -84.5q-229 0 -350 141t-121 379q0 240 122.5 395.5t352.5 155.5q160 0 267.5 -81t153.5 -205t46 -282v-37h-764q0 -137 87 -226t210 -89q86 0 156.5 47t107.5 129zM334 590h581q0 127 -81.5 219t-208.5 92q-133 0 -210 -100 t-81 -211zM541 1233h-201v201h201v-201zM909 1233h-200v201h200v-201z" glyph-name="edieresis" unicode="ë"/><glyph d="M1147 0h-963v141h396v748h-306v141h480v-889h393v-141zM324 1483l403 -295l-55 -82l-436 237z" glyph-name="igrave" unicode="ì"/><glyph d="M1147 0h-963v141h396v748h-306v141h480v-889h393v-141zM1096 1343l-437 -237l-55 82l404 295z" glyph-name="iacute" unicode="í"/><glyph d="M1147 0h-963v141h396v748h-306v141h480v-889h393v-141zM688 1479l264 -269l-90 -90l-237 244l-238 -244l-90 90l264 269h127z" glyph-name="icircumflex" unicode="î"/><glyph d="M1147 0h-963v141h396v748h-306v141h480v-889h393v-141zM541 1233h-201v201h201v-201zM909 1233h-200v201h200v-201z" glyph-name="idieresis" unicode="ï"/><glyph d="M1151 1075l76 -92l-248 -207q0 -121 -7 -216t-37 -209.5t-80 -191.5t-143.5 -129.5t-222.5 -52.5q-203 0 -336 136.5t-133 347.5q0 215 132.5 353t334.5 138q96 0 186.5 -46t125.5 -118q-23 500 -357 500q-170 0 -258 -108v223q113 53 258 53q240 0 365 -147.5 t160 -386.5zM487 135q137 0 215 94.5t78 235.5q0 63 -20 129l-170 -141l-76 92l186 157q-80 92 -213 93q-135 0 -211.5 -94.5t-76.5 -235.5t76.5 -235.5t211.5 -94.5z" glyph-name="eth" unicode="ð"/><glyph d="M373 1030l16 -178q43 94 131 146.5t180 52.5q182 0 274.5 -112t92.5 -312v-627h-174v627q0 137 -55.5 202.5t-173.5 65.5q-80 0 -136.5 -43t-85 -114.5t-41 -142.5t-12.5 -146v-449h-174v1030h158zM487 1298q-57 0 -133 -75l-80 88q125 123 213 123q53 0 142.5 -44 t132.5 -44q66 0 133 67l80 -88q-117 -115 -213 -115q-53 0 -142.5 44t-132.5 44z" glyph-name="ntilde" unicode="ñ"/><glyph d="M930 516q0 164 -79 274.5t-230 110.5q-150 0 -226 -110.5t-76 -274.5t77 -274.5t228.5 -110.5t228.5 110.5t77 274.5zM624.5 -20q-231.5 0 -356.5 154.5t-125 381.5t123 381t354.5 154t358.5 -154t127 -381t-125 -381.5t-356.5 -154.5zM283 1483l403 -295l-55 -82 l-436 237z" glyph-name="ograve" unicode="ò"/><glyph d="M930 516q0 164 -79 274.5t-230 110.5q-150 0 -226 -110.5t-76 -274.5t77 -274.5t228.5 -110.5t228.5 110.5t77 274.5zM624.5 -20q-231.5 0 -356.5 154.5t-125 381.5t123 381t354.5 154t358.5 -154t127 -381t-125 -381.5t-356.5 -154.5zM1055 1343l-437 -237l-55 82 l404 295z" glyph-name="oacute" unicode="ó"/><glyph d="M930 516q0 164 -79 274.5t-230 110.5q-150 0 -226 -110.5t-76 -274.5t77 -274.5t228.5 -110.5t228.5 110.5t77 274.5zM624.5 -20q-231.5 0 -356.5 154.5t-125 381.5t123 381t354.5 154t358.5 -154t127 -381t-125 -381.5t-356.5 -154.5zM688 1479l264 -269l-90 -90 l-237 244l-238 -244l-90 90l264 269h127z" glyph-name="ocircumflex" unicode="ô"/><glyph d="M930 516q0 164 -79 274.5t-230 110.5q-150 0 -226 -110.5t-76 -274.5t77 -274.5t228.5 -110.5t228.5 110.5t77 274.5zM624.5 -20q-231.5 0 -356.5 154.5t-125 381.5t123 381t354.5 154t358.5 -154t127 -381t-125 -381.5t-356.5 -154.5zM487 1298q-57 0 -133 -75l-80 88 q125 123 213 123q53 0 142.5 -44t132.5 -44q66 0 133 67l80 -88q-117 -115 -213 -115q-53 0 -142.5 44t-132.5 44z" glyph-name="otilde" unicode="õ"/><glyph d="M930 516q0 164 -79 274.5t-230 110.5q-150 0 -226 -110.5t-76 -274.5t77 -274.5t228.5 -110.5t228.5 110.5t77 274.5zM624.5 -20q-231.5 0 -356.5 154.5t-125 381.5t123 381t354.5 154t358.5 -154t127 -381t-125 -381.5t-356.5 -154.5zM541 1233h-201v201h201v-201z M909 1233h-200v201h200v-201z" glyph-name="odieresis" unicode="ö"/><glyph d="M1161 543h-1075v145h1075v-145zM512 82v246h223v-246h-223zM512 905v246h223v-246h-223z" glyph-name="divide" unicode="÷"/><glyph d="M881 989l112 154l123 -96l-117 -162q115 -150 115 -369q0 -227 -125 -381.5t-356 -154.5q-143 0 -250 61l-129 -174l-123 94l133 184q-115 150 -114 371q0 227 123.5 381t355.5 154q152 -1 252 -62zM891 737l-414 -565q66 -41 156 -41q152 0 228.5 110.5t76.5 274.5 q0 121 -47 221zM373 293l413 567q-66 41 -157 41q-150 0 -225.5 -110.5t-75.5 -274.5q0 -127 45 -223z" glyph-name="oslash" unicode="ø"/><glyph d="M561 -20q-180 0 -272 111.5t-92 311.5v627h174v-627q0 -143 49 -207.5t178 -64.5q135 0 205.5 91t70.5 181v627h175v-1030h-160l-15 180q-43 -94 -131 -147t-182 -53zM262 1483l404 -295l-56 -82l-436 237z" glyph-name="ugrave" unicode="ù"/><glyph d="M561 -20q-180 0 -272 111.5t-92 311.5v627h174v-627q0 -143 49 -207.5t178 -64.5q135 0 205.5 91t70.5 181v627h175v-1030h-160l-15 180q-43 -94 -131 -147t-182 -53zM1034 1343l-436 -237l-55 82l403 295z" glyph-name="uacute" unicode="ú"/><glyph d="M561 -20q-180 0 -272 111.5t-92 311.5v627h174v-627q0 -143 49 -207.5t178 -64.5q135 0 205.5 91t70.5 181v627h175v-1030h-160l-15 180q-43 -94 -131 -147t-182 -53zM688 1479l264 -269l-90 -90l-237 244l-238 -244l-90 90l264 269h127z" glyph-name="ucircumflex" unicode="û"/><glyph d="M561 -20q-180 0 -272 111.5t-92 311.5v627h174v-627q0 -143 49 -207.5t178 -64.5q135 0 205.5 91t70.5 181v627h175v-1030h-160l-15 180q-43 -94 -131 -147t-182 -53zM541 1233h-201v201h201v-201zM909 1233h-200v201h200v-201z" glyph-name="udieresis" unicode="ü"/><glyph d="M160 -424v172q78 -41 180 -41q111 0 156 115l67 168l-448 1040h202l338 -850l334 850h201l-508 -1208q-57 -133 -130 -199.5t-212 -66.5q-94 0 -180 20zM1075 1343l-436 -237l-55 82l403 295z" glyph-name="yacute" unicode="ý"/><glyph d="M412 135v-559h-172v1858h172v-533q45 72 122.5 111t165.5 39q217 0 326 -156t109 -383q0 -225 -107.5 -378.5t-327.5 -153.5q-90 0 -166.5 43.5t-121.5 111.5zM700 131q135 0 195.5 106.5t60.5 274.5q0 172 -60 280.5t-196 108.5q-289 0 -288 -389q-1 -381 288 -381z" glyph-name="thorn" unicode="þ"/><glyph d="M160 -424v172q78 -41 180 -41q111 0 156 115l67 168l-448 1040h202l338 -850l334 850h201l-508 -1208q-57 -133 -130 -199.5t-212 -66.5q-94 0 -180 20zM541 1233h-201v201h201v-201zM909 1233h-200v201h200v-201z" glyph-name="ydieresis" unicode="ÿ"/><glyph d="M41 0l471 1434h203l491 -1434h-178l-147 449h-519l-141 -449h-180zM614 1255l-202 -649h415zM905 1630h-561v146h561v-146z" glyph-name="Amacron" unicode="Ā"/><glyph d="M848 498q-92 0 -137 -1t-117 -7.5t-108.5 -20.5t-76.5 -38.5t-56.5 -65.5t-16.5 -97q0 -131 186 -131q35 0 68 4t85 25.5t89 56.5t62.5 107t21.5 168zM618 1051q178 0 290 -113t112 -305v-365l55 -268h-157l-56 158q-43 -70 -143.5 -124t-204.5 -54q-172 0 -265 87 t-93 201q0 59 15 108.5t38.5 85.5t65.5 63.5t78 45t94.5 29.5t98.5 18.5t105.5 10.5t99 4h97.5q0 260 -232 260q-98 0 -164.5 -43t-74.5 -133h-170q0 156 125.5 245t285.5 89zM905 1227h-561v145h561v-145z" glyph-name="amacron" unicode="ā"/><glyph d="M41 0l471 1434h203l491 -1434h-178l-147 449h-519l-141 -449h-180zM614 1255l-202 -649h415zM825 1858h136q0 -150 -90.5 -238t-246 -88t-245.5 88t-90 238h135q0 -88 53 -139.5t147.5 -51.5t147.5 51.5t53 139.5z" glyph-name="Abreve" unicode="Ă"/><glyph d="M848 498q-92 0 -137 -1t-117 -7.5t-108.5 -20.5t-76.5 -38.5t-56.5 -65.5t-16.5 -97q0 -131 186 -131q35 0 68 4t85 25.5t89 56.5t62.5 107t21.5 168zM618 1051q178 0 290 -113t112 -305v-365l55 -268h-157l-56 158q-43 -70 -143.5 -124t-204.5 -54q-172 0 -265 87 t-93 201q0 59 15 108.5t38.5 85.5t65.5 63.5t78 45t94.5 29.5t98.5 18.5t105.5 10.5t99 4h97.5q0 260 -232 260q-98 0 -164.5 -43t-74.5 -133h-170q0 156 125.5 245t285.5 89zM825 1454h136q0 -150 -90.5 -238t-246 -88t-245.5 88.5t-90 237.5h135q0 -88 53 -139t147.5 -51 t147.5 51t53 139z" glyph-name="abreve" unicode="ă"/><glyph d="M614 1255l-202 -649h415zM952 0h76l-147 449h-519l-141 -449h-180l471 1434h203l491 -1434h-96q-43 -47 -59.5 -109.5t12.5 -110.5t104 -48q39 0 70 14v-166q-35 -6 -70 -6q-137 0 -220 72.5t-81 174t86 179.5z" glyph-name="Aogonek" unicode="Ą"/><glyph d="M848 498q-92 0 -137 -1t-117 -7.5t-108.5 -20.5t-76.5 -38.5t-56.5 -65.5t-16.5 -97q0 -131 186 -131q35 0 68 4t85 25.5t89 56.5t62.5 107t21.5 168zM850 0h68l-56 158q-43 -70 -143.5 -124t-204.5 -54q-172 0 -265 87t-93 201q0 59 15 108.5t38.5 85.5t65.5 63.5t78 45 t94.5 29.5t98.5 18.5t105.5 10.5t99 4h97.5q0 260 -232 260q-98 0 -164.5 -43t-74.5 -133h-170q0 156 126 245t285 89q178 0 290 -113t112 -305v-365l55 -268h-67q-41 -49 -57.5 -110.5t11 -109.5t103.5 -48q37 0 72 14v-166q-37 -6 -72 -6q-137 0 -219 72.5t-81 174 t85 179.5z" glyph-name="aogonek" unicode="ą"/><glyph d="M973 449h184q-29 -207 -157 -338t-369 -131q-123 0 -219.5 43t-155.5 112.5t-97 166.5t-52.5 198.5t-14.5 216t14.5 216t52.5 199t97 167t155.5 112.5t219.5 43q242 0 369.5 -131t156.5 -338h-184q-61 303 -342 303q-358 0 -358.5 -571.5t358.5 -571.5q281 1 342 304z M639 1509l-55 82l403 295l88 -139z" glyph-name="Cacute" unicode="Ć"/><glyph d="M907 377h172q-10 -162 -133 -279.5t-315 -117.5q-213 0 -342 156.5t-129 381.5q0 223 129 378t342 155q193 0 315.5 -116t132.5 -276h-172q-49 242 -280 242q-145 0 -216 -102.5t-71 -280.5q0 -176 72.5 -281.5t218.5 -105.5q113 0 182 65.5t94 180.5zM618 1106l-55 82 l404 295l88 -140z" glyph-name="cacute" unicode="ć"/><glyph d="M973 449h184q-29 -207 -157 -338t-369 -131q-123 0 -219.5 43t-155.5 112.5t-97 166.5t-52.5 198.5t-14.5 216t14.5 216t52.5 199t97 167t155.5 112.5t219.5 43q242 0 369.5 -131t156.5 -338h-184q-61 303 -342 303q-358 0 -358.5 -571.5t358.5 -571.5q281 1 342 304z M952 1614l-90 -90l-237 243l-238 -243l-90 90l264 268h127z" glyph-name="Ccircumflex" unicode="Ĉ"/><glyph d="M907 377h172q-10 -162 -133 -279.5t-315 -117.5q-213 0 -342 156.5t-129 381.5q0 223 129 378t342 155q193 0 315.5 -116t132.5 -276h-172q-49 242 -280 242q-145 0 -216 -102.5t-71 -280.5q0 -176 72.5 -281.5t218.5 -105.5q113 0 182 65.5t94 180.5zM952 1210l-90 -90 l-237 244l-238 -244l-90 90l264 269h127z" glyph-name="ccircumflex" unicode="ĉ"/><glyph d="M973 449h184q-29 -207 -157 -338t-369 -131q-123 0 -219.5 43t-155.5 112.5t-97 166.5t-52.5 198.5t-14.5 216t14.5 216t52.5 199t97 167t155.5 112.5t219.5 43q242 0 369.5 -131t156.5 -338h-184q-61 303 -342 303q-358 0 -358.5 -571.5t358.5 -571.5q281 1 342 304z M524 1636v201h201v-201h-201z" glyph-name="Cdotaccent" unicode="Ċ"/><glyph d="M907 377h172q-10 -162 -133 -279.5t-315 -117.5q-213 0 -342 156.5t-129 381.5q0 223 129 378t342 155q193 0 315.5 -116t132.5 -276h-172q-49 242 -280 242q-145 0 -216 -102.5t-71 -280.5q0 -176 72.5 -281.5t218.5 -105.5q113 0 182 65.5t94 180.5zM524 1233v201h201 v-201h-201z" glyph-name="cdotaccent" unicode="ċ"/><glyph d="M973 449h184q-29 -207 -157 -338t-369 -131q-123 0 -219.5 43t-155.5 112.5t-97 166.5t-52.5 198.5t-14.5 216t14.5 216t52.5 199t97 167t155.5 112.5t219.5 43q242 0 369.5 -131t156.5 -338h-184q-61 303 -342 303q-358 0 -358.5 -571.5t358.5 -571.5q281 1 342 304z M862 1882l90 -90l-264 -268h-127l-264 268l90 90l238 -244z" glyph-name="Ccaron" unicode="Č"/><glyph d="M907 377h172q-10 -162 -133 -279.5t-315 -117.5q-213 0 -342 156.5t-129 381.5q0 223 129 378t342 155q193 0 315.5 -116t132.5 -276h-172q-49 242 -280 242q-145 0 -216 -102.5t-71 -280.5q0 -176 72.5 -281.5t218.5 -105.5q113 0 182 65.5t94 180.5zM862 1479l90 -90 l-264 -269h-127l-264 269l90 90l238 -244z" glyph-name="ccaron" unicode="č"/><glyph d="M1118 719q0 -131 -12 -231.5t-48 -195.5t-94.5 -156.5t-155.5 -98.5t-228 -37h-449v1434h449q131 0 228 -37t155.5 -98.5t94.5 -155.5t48 -194.5t12 -229.5zM928 717q0 92 -6.5 161.5t-27 146.5t-57 126t-102 82t-155.5 33h-269v-1098h269q90 0 155.5 32.5t102 82t57 126 t27 146.5t6.5 162zM625 1638l237 244l90 -90l-264 -268h-127l-264 268l90 90z" glyph-name="Dcaron" unicode="Ď"/><glyph d="M881 1454h174v-1454h-160l-14 129q-43 -70 -131 -109.5t-181 -39.5q-219 0 -337.5 157.5t-118.5 380.5q0 141 47 259t153.5 196t255.5 78q92 0 179.5 -44t132.5 -110v557zM569 901q-135 0 -205.5 -110.5t-70.5 -272.5q0 -166 69.5 -276.5t206.5 -110.5q92 0 158 37 t96.5 99.5t44 123t13.5 127.5q0 66 -13.5 126.5t-44 121.5t-96.5 98t-158 37zM393 1104l-55 82l403 293l88 -138z" glyph-name="dcaron" unicode="ď"/><glyph d="M131 0v1434h449q131 0 228 -37t155.5 -98.5t94.5 -155.5t48 -194.5t12 -229.5q0 -131 -12 -231.5t-48 -195.5t-94.5 -156.5t-155.5 -98.5t-228 -37h-449zM311 817h537v-168h-537v-481h269q90 0 155.5 32.5t102 82t57 126t27 146.5t6.5 162t-6.5 161.5t-27 146.5t-57 126 t-102 82t-155.5 33h-269v-449z" glyph-name="Dcroat" unicode="Đ"/><glyph d="M881 1454h174v-1454h-160l-14 129q-43 -70 -131 -109.5t-181 -39.5q-219 0 -337.5 157.5t-118.5 380.5q0 141 47 259t153.5 196t255.5 78q92 0 179.5 -44t132.5 -110v557zM569 901q-135 0 -205.5 -110.5t-70.5 -272.5q0 -166 69.5 -276.5t206.5 -110.5q92 0 158 37 t96.5 99.5t44 123t13.5 127.5q0 66 -13.5 126.5t-44 121.5t-96.5 98t-158 37zM344 1630v146h561v-146h-561z" glyph-name="dcroat" unicode="đ"/><glyph d="M1096 168v-168h-942v1434h942v-158h-762v-447h627v-157h-627v-504h762zM344 1630v146h561v-146h-561z" glyph-name="Emacron" unicode="Ē"/><glyph d="M893 307h180q-45 -158 -158.5 -242.5t-289.5 -84.5q-229 0 -350 141t-121 379q0 240 122.5 395.5t352.5 155.5q160 0 267.5 -81t153.5 -205t46 -282v-37h-764q0 -137 87 -226t210 -89q86 0 156.5 47t107.5 129zM334 590h581q0 127 -81.5 219t-208.5 92q-133 0 -210 -100 t-81 -211zM905 1227h-561v145h561v-145z" glyph-name="emacron" unicode="ē"/><glyph d="M1096 168v-168h-942v1434h942v-158h-762v-447h627v-157h-627v-504h762zM825 1858h136q0 -150 -90.5 -238t-246 -88t-245.5 88t-90 238h135q0 -88 53 -139.5t147.5 -51.5t147.5 51.5t53 139.5z" glyph-name="Ebreve" unicode="Ĕ"/><glyph d="M893 307h180q-45 -158 -158.5 -242.5t-289.5 -84.5q-229 0 -350 141t-121 379q0 240 122.5 395.5t352.5 155.5q160 0 267.5 -81t153.5 -205t46 -282v-37h-764q0 -137 87 -226t210 -89q86 0 156.5 47t107.5 129zM334 590h581q0 127 -81.5 219t-208.5 92q-133 0 -210 -100 t-81 -211zM825 1454h136q0 -150 -90.5 -238t-246 -88t-245.5 88.5t-90 237.5h135q0 -88 53 -139t147.5 -51t147.5 51t53 139z" glyph-name="ebreve" unicode="ĕ"/><glyph d="M1096 168v-168h-942v1434h942v-158h-762v-447h627v-157h-627v-504h762zM524 1636v201h201v-201h-201z" glyph-name="Edotaccent" unicode="Ė"/><glyph d="M893 307h180q-45 -158 -158.5 -242.5t-289.5 -84.5q-229 0 -350 141t-121 379q0 240 122.5 395.5t352.5 155.5q160 0 267.5 -81t153.5 -205t46 -282v-37h-764q0 -137 87 -226t210 -89q86 0 156.5 47t107.5 129zM334 590h581q0 127 -81.5 219t-208.5 92q-133 0 -210 -100 t-81 -211zM725 1233h-201v201h201v-201z" glyph-name="edotaccent" unicode="ė"/><glyph d="M1096 168v-168q-43 -47 -59.5 -109.5t12 -110.5t104.5 -48q39 0 70 14v-166q-33 -6 -70 -6q-104 0 -179 44t-102.5 108.5t-12.5 139.5t77 134h-782v1434h942v-158h-762v-447h627v-157h-627v-504h762z" glyph-name="Eogonek" unicode="Ę"/><glyph d="M334 590h581q0 127 -81.5 219t-208.5 92q-133 0 -210 -100t-81 -211zM598 -20q-217 8 -330.5 149t-113.5 371q0 240 122.5 395.5t352.5 155.5q160 0 267.5 -81t153.5 -205t46 -282v-37h-764q0 -137 87 -226t210 -89q86 0 156.5 47t107.5 129h180q-74 -250 -299 -309 q-41 -49 -57.5 -109.5t12.5 -108.5t105 -48q39 0 69 14v-166q-33 -6 -69 -6q-100 0 -173 41t-104 101.5t-21.5 132.5t62.5 131z" glyph-name="eogonek" unicode="ę"/><glyph d="M1096 168v-168h-942v1434h942v-158h-762v-447h627v-157h-627v-504h762zM862 1882l90 -90l-264 -268h-127l-264 268l90 90l238 -244z" glyph-name="Ecaron" unicode="Ě"/><glyph d="M893 307h180q-45 -158 -158.5 -242.5t-289.5 -84.5q-229 0 -350 141t-121 379q0 240 122.5 395.5t352.5 155.5q160 0 267.5 -81t153.5 -205t46 -282v-37h-764q0 -137 87 -226t210 -89q86 0 156.5 47t107.5 129zM334 590h581q0 127 -81.5 219t-208.5 92q-133 0 -210 -100 t-81 -211zM625 1235l237 244l90 -90l-264 -269h-127l-264 269l90 90z" glyph-name="ecaron" unicode="ě"/><glyph d="M993 594h-278v156h446v-750h-133l-35 201q-45 -90 -144 -155.5t-224 -65.5q-123 0 -219.5 43t-156 112.5t-97 166.5t-52 198.5t-14.5 216t14.5 216t52 199t97 167t156 112.5t219.5 43q242 0 370.5 -131t155.5 -338h-184q-61 303 -342 303q-358 0 -359 -571 q0 -78 7.5 -146.5t30 -150.5t61 -139.5t108.5 -96.5t162 -39q358 0 358 449zM952 1614l-90 -90l-237 243l-238 -243l-90 90l264 268h127z" glyph-name="Gcircumflex" unicode="Ĝ"/><glyph d="M592 291q-111 0 -205 49q-23 -8 -38 -34.5t-15 -49.5q0 -43 46 -74.5t122 -31.5h88q231 0 362 -71t131 -253q0 -162 -137 -241t-354 -79q-188 0 -318.5 80t-130.5 240q0 139 127 221q-111 66 -95.5 177.5t130.5 174.5q-115 111 -115 273q0 168 115 274.5t287 106.5 q160 0 268 -92l111 182l135 -113l-160 -172q47 -82 47 -186q0 -166 -115.5 -273.5t-285.5 -107.5zM592 0h-90q-37 0 -58 2q-133 -37 -133 -168q0 -63 61.5 -119.5t219.5 -56.5q313 0 313 176q0 166 -313 166zM825 672q0 100 -66.5 165.5t-166.5 65.5q-102 0 -169 -65.5 t-67 -165.5q0 -98 66.5 -160.5t169.5 -62.5q100 0 166.5 62.5t66.5 160.5zM688 1479l264 -269l-90 -90l-237 244l-238 -244l-90 90l264 269h127z" glyph-name="gcircumflex" unicode="ĝ"/><glyph d="M993 594h-278v156h446v-750h-133l-35 201q-45 -90 -144 -155.5t-224 -65.5q-123 0 -219.5 43t-156 112.5t-97 166.5t-52 198.5t-14.5 216t14.5 216t52 199t97 167t156 112.5t219.5 43q242 0 370.5 -131t155.5 -338h-184q-61 303 -342 303q-358 0 -359 -571 q0 -78 7.5 -146.5t30 -150.5t61 -139.5t108.5 -96.5t162 -39q358 0 358 449zM825 1858h136q0 -150 -90.5 -238t-246 -88t-245.5 88t-90 238h135q0 -88 53 -139.5t147.5 -51.5t147.5 51.5t53 139.5z" glyph-name="Gbreve" unicode="Ğ"/><glyph d="M592 291q-111 0 -205 49q-23 -8 -38 -34.5t-15 -49.5q0 -43 46 -74.5t122 -31.5h88q231 0 362 -71t131 -253q0 -162 -137 -241t-354 -79q-188 0 -318.5 80t-130.5 240q0 139 127 221q-111 66 -95.5 177.5t130.5 174.5q-115 111 -115 273q0 168 115 274.5t287 106.5 q160 0 268 -92l111 182l135 -113l-160 -172q47 -82 47 -186q0 -166 -115.5 -273.5t-285.5 -107.5zM592 0h-90q-37 0 -58 2q-133 -37 -133 -168q0 -63 61.5 -119.5t219.5 -56.5q313 0 313 176q0 166 -313 166zM825 672q0 100 -66.5 165.5t-166.5 65.5q-102 0 -169 -65.5 t-67 -165.5q0 -98 66.5 -160.5t169.5 -62.5q100 0 166.5 62.5t66.5 160.5zM784 1454h136q0 -150 -90.5 -238t-246 -88t-245.5 88.5t-90 237.5h135q0 -88 53 -139t147.5 -51t147.5 51t53 139z" glyph-name="gbreve" unicode="ğ"/><glyph d="M993 594h-278v156h446v-750h-133l-35 201q-45 -90 -144 -155.5t-224 -65.5q-123 0 -219.5 43t-156 112.5t-97 166.5t-52 198.5t-14.5 216t14.5 216t52 199t97 167t156 112.5t219.5 43q242 0 370.5 -131t155.5 -338h-184q-61 303 -342 303q-358 0 -359 -571 q0 -78 7.5 -146.5t30 -150.5t61 -139.5t108.5 -96.5t162 -39q358 0 358 449zM524 1636v201h201v-201h-201z" glyph-name="Gdotaccent" unicode="Ġ"/><glyph d="M592 291q-111 0 -205 49q-23 -8 -38 -34.5t-15 -49.5q0 -43 46 -74.5t122 -31.5h88q231 0 362 -71t131 -253q0 -162 -137 -241t-354 -79q-188 0 -318.5 80t-130.5 240q0 139 127 221q-111 66 -95.5 177.5t130.5 174.5q-115 111 -115 273q0 168 115 274.5t287 106.5 q160 0 268 -92l111 182l135 -113l-160 -172q47 -82 47 -186q0 -166 -115.5 -273.5t-285.5 -107.5zM592 0h-90q-37 0 -58 2q-133 -37 -133 -168q0 -63 61.5 -119.5t219.5 -56.5q313 0 313 176q0 166 -313 166zM825 672q0 100 -66.5 165.5t-166.5 65.5q-102 0 -169 -65.5 t-67 -165.5q0 -98 66.5 -160.5t169.5 -62.5q100 0 166.5 62.5t66.5 160.5zM684 1233h-201v201h201v-201z" glyph-name="gdotaccent" unicode="ġ"/><glyph d="M729 -8l-170 -438l-186 88l192 340q-135 12 -232 79.5t-149.5 174t-75 225.5t-22.5 256q0 115 14.5 216t52 198.5t97 167t156 112.5t219.5 43q242 0 370.5 -131t155.5 -338h-184q-61 303 -342 303q-358 0 -359 -571q0 -78 7.5 -146.5t30 -150.5t61 -139.5t108.5 -96.5 t162 -39q358 0 358 449h-278v156h446v-750h-133l-35 201q-37 -70 -105.5 -128t-158.5 -81z" glyph-name="Gcommaaccent" unicode="Ģ"/><glyph d="M610 291q-109 0 -202 49q-23 -8 -38.5 -34.5t-15.5 -51.5q0 -41 46 -71.5t120 -30.5h90q494 0 494 -322t-494 -322q-184 0 -316 84t-132 244q0 76 32.5 123t96.5 88q-111 66 -95.5 177.5t130.5 174.5q-115 109 -115 273q0 166 114.5 272.5t284.5 106.5q162 0 271 -90 l110 182l146 -113l-170 -172q47 -82 47 -186q0 -166 -116 -273.5t-288 -107.5zM610 0h-90q-37 0 -55 2q-133 -37 -133 -160q0 -70 60.5 -127t217.5 -57q313 0 314 172q-1 170 -314 170zM610 901q-100 0 -166.5 -64.5t-66.5 -164.5q0 -98 66.5 -160.5t166.5 -62.5 q102 0 169 62t67 161q0 100 -67 164.5t-169 64.5zM870 1343l-436 -237l-57 82l403 295z" glyph-name="gcommaaccent" unicode="ģ"/><glyph d="M131 0v1434h180v-605h627v605h180v-1434h-180v672h-627v-672h-180zM952 1614l-90 -90l-237 243l-238 -243l-90 90l264 268h127z" glyph-name="Hcircumflex" unicode="Ĥ"/><glyph d="M199 0v1454h174v-557q43 74 133 114t194 40q164 0 257.5 -100.5t93.5 -278.5v-672h-179v627q0 125 -56 196.5t-171 71.5q-106 0 -170.5 -65.5t-83 -142.5t-18.5 -169v-518h-174zM688 1882l264 -268l-90 -90l-237 243l-238 -243l-90 90l264 268h127z" glyph-name="hcircumflex" unicode="ĥ"/><glyph d="M131 0v1434h180v-605h627v605h180v-1434h-180v672h-627v-672h-180zM344 1630v146h561v-146h-561z" glyph-name="Hbar" unicode="Ħ"/><glyph d="M199 0v1454h174v-557q43 74 133 114t194 40q164 0 257.5 -100.5t93.5 -278.5v-672h-179v627q0 125 -56 196.5t-171 71.5q-106 0 -170.5 -65.5t-83 -142.5t-18.5 -169v-518h-174zM905 1630h-561v146h561v-146z" glyph-name="hbar" unicode="ħ"/><glyph d="M209 1434h829v-166h-325v-1102h325v-166h-829v166h326v1102h-326v166zM487 1702q-57 0 -133 -76l-80 88q125 123 213 123q53 0 142.5 -44t132.5 -44q66 0 133 68l80 -88q-117 -115 -213 -115q-53 0 -142.5 44t-132.5 44z" glyph-name="Itilde" unicode="Ĩ"/><glyph d="M1147 0h-963v141h396v748h-306v141h480v-889h393v-141zM487 1298q-57 0 -133 -75l-80 88q125 123 213 123q53 0 142.5 -44t132.5 -44q66 0 133 67l80 -88q-117 -115 -213 -115q-53 0 -142.5 44t-132.5 44z" glyph-name="itilde" unicode="ĩ"/><glyph d="M209 1434h829v-166h-325v-1102h325v-166h-829v166h326v1102h-326v166zM905 1630h-561v146h561v-146z" glyph-name="Imacron" unicode="Ī"/><glyph d="M1147 0h-963v141h396v748h-306v141h480v-889h393v-141zM905 1227h-561v145h561v-145z" glyph-name="imacron" unicode="ī"/><glyph d="M209 1434h829v-166h-325v-1102h325v-166h-829v166h326v1102h-326v166zM825 1858h136q0 -150 -90.5 -238t-246 -88t-245.5 88t-90 238h135q0 -88 53 -139.5t147.5 -51.5t147.5 51.5t53 139.5z" glyph-name="Ibreve" unicode="Ĭ"/><glyph d="M1147 0h-963v141h396v748h-306v141h480v-889h393v-141zM825 1454h136q0 -150 -90.5 -238t-246 -88t-245.5 88.5t-90 237.5h135q0 -88 53 -139t147.5 -51t147.5 51t53 139z" glyph-name="ibreve" unicode="ĭ"/><glyph d="M567 0h-358v166h326v1102h-326v166h829v-166h-325v-1102h325v-166h-311q-43 -49 -59.5 -110.5t11.5 -109.5t105 -48q39 0 70 14v-166q-37 -6 -70 -6q-104 0 -179 44t-102.5 108.5t-12 139.5t76.5 134z" glyph-name="Iogonek" unicode="Į"/><glyph d="M549 1245v209h225v-209h-225zM586 0h-402v141h396v746h-306v143h478v-889h395v-141h-404q-43 -47 -59 -109.5t12.5 -110.5t104.5 -48q39 0 69 14v-166q-33 -6 -69 -6q-137 0 -220 72.5t-81 174t86 179.5z" glyph-name="iogonek" unicode="į"/><glyph d="M209 1434h829v-166h-325v-1102h325v-166h-829v166h326v1102h-326v166zM725 1636h-201v201h201v-201z" glyph-name="Idotaccent" unicode="İ"/><glyph d="M1147 0h-963v141h396v748h-306v141h480v-889h393v-141z" glyph-name="dotlessi" unicode="ı"/><glyph d="M41 1434h719v-156h-271v-1110h269q268 0 268 281v985h180v-985q0 -201 -122.5 -325t-323.5 -124h-719v168h268v1110h-268v156z" glyph-name="IJ" unicode="Ĳ"/><glyph d="M420 1456h203v-201h-203v201zM924 1255v201h202v-201h-202zM129 1030h985v-1053q0 -219 -110.5 -322.5t-278.5 -103.5q-88 0 -178 23v174q82 -45 178 -45q102 0 157.5 70.5t59.5 203.5v23h-903v141h395v748h-305v141zM608 141h334v748h-334v-748z" glyph-name="ij" unicode="ĳ"/><glyph d="M117 449h178q0 -139 68.5 -221.5t199.5 -82.5t199.5 82t68.5 222v985h181v-985q0 -203 -125 -336t-323.5 -133t-322.5 133t-124 336zM688 1882l264 -268l-90 -90l-237 243l-238 -243l-90 90l264 268h127z" glyph-name="Jcircumflex" unicode="Ĵ"/><glyph d="M346 1030h524v-1053q0 -219 -110.5 -322.5t-278.5 -103.5q-86 0 -180 23v174q86 -45 180 -45q102 0 157.5 70.5t57.5 203.5v912h-350v141zM688 1479l264 -269l-90 -90l-237 244l-238 -244l-90 90l264 269h127z" glyph-name="jcircumflex" unicode="ĵ"/><glyph d="M604 829l604 -829h-200l-516 717l-179 -178v-539h-180v1434h180v-682l682 682h213zM573 0h158l-172 -446l-186 88z" glyph-name="Kcommaaccent" unicode="Ķ"/><glyph d="M625 463l-191 -201v-262h-174v1454h174v-977l510 553h201l-408 -444l420 -586h-203z" glyph-name="kcommaaccent" unicode="ķ"/><glyph d="M623 465l-191 -201v-264h-174v1030h174v-553l510 553h201l-408 -444l420 -586h-203z" glyph-name="kgreenlandic" unicode="ĸ"/><glyph d="M1174 168v-168h-898v1434h181v-1266h717zM799 1747l-437 -238l-55 82l404 295z" glyph-name="Lacute" unicode="Ĺ"/><glyph d="M1094 0h-965v141h395v1174h-305v141h479v-1315h396v-141zM549 1612l403 291l90 -158l-438 -211z" glyph-name="lacute" unicode="ĺ"/><glyph d="M432 -358l201 358h-357v1434h181v-1266h717v-168h-383l-173 -446z" glyph-name="Lcommaaccent" unicode="Ļ"/><glyph d="M1116 0h-962v141h395v1174h-305v139h477v-1313h395v-141z" glyph-name="lcommaaccent" unicode="ļ"/><glyph d="M870 1341l-413 -225v-948h717v-168h-898v1434h181v-191l325 236z" glyph-name="Lcaron" unicode="Ľ"/><glyph d="M1116 1341l-395 -215v-985h395v-141h-962v141h395v1174h-305v139h477v-197l305 222z" glyph-name="lcaron" unicode="ľ"/><glyph d="M1174 168v-168h-898v1434h181v-1266h717zM686 610h203v-200h-203v200z" glyph-name="Ldot" unicode="Ŀ"/><glyph d="M1096 0h-963v141h395v1174h-305v139h477v-1313h396v-141zM895 612h201v-202h-201v202z" glyph-name="ldot" unicode="ŀ"/><glyph d="M457 918l190 157l78 -92l-268 -223v-592h717v-168h-895v610l-191 -157l-78 92l269 223v666h178v-516z" glyph-name="Lslash" unicode="Ł"/><glyph d="M1096 0h-963v141h395v473l-194 -161l-76 92l270 225v543h-305v141h479v-539l193 160l76 -92l-269 -225v-617h394v-141z" glyph-name="lslash" unicode="ł"/><glyph d="M311 0h-180v1434h236l571 -1188v1188h180v-1434h-235l-572 1188v-1188zM1034 1747l-436 -238l-55 82l403 295z" glyph-name="Nacute" unicode="Ń"/><glyph d="M373 1030l16 -178q43 94 131 146.5t180 52.5q182 0 274.5 -112t92.5 -312v-627h-174v627q0 137 -55.5 202.5t-173.5 65.5q-80 0 -136.5 -43t-85 -114.5t-41 -142.5t-12.5 -146v-449h-174v1030h158zM870 1343l-436 -237l-55 82l403 295z" glyph-name="nacute" unicode="ń"/><glyph d="M311 0h-180v1434h236l571 -1188v1188h180v-1434h-235l-572 1188v-1188zM582 0h155l-172 -446l-186 88z" glyph-name="Ncommaaccent" unicode="Ņ"/><glyph d="M373 1030l16 -178q43 94 131 146.5t180 52.5q182 0 274.5 -112t92.5 -312v-627h-174v627q0 137 -55.5 202.5t-173.5 65.5q-80 0 -136.5 -43t-85 -114.5t-41 -142.5t-12.5 -146v-449h-174v1030h158z" glyph-name="ncommaaccent" unicode="ņ"/><glyph d="M311 0h-180v1434h236l571 -1188v1188h180v-1434h-235l-572 1188v-1188zM625 1638l237 244l90 -90l-264 -268h-127l-264 268l90 90z" glyph-name="Ncaron" unicode="Ň"/><glyph d="M373 1030l16 -178q43 94 131 146.5t180 52.5q182 0 274.5 -112t92.5 -312v-627h-174v627q0 137 -55.5 202.5t-173.5 65.5q-80 0 -136.5 -43t-85 -114.5t-41 -142.5t-12.5 -146v-449h-174v1030h158zM625 1235l237 244l90 -90l-264 -269h-127l-264 269l90 90z" glyph-name="ncaron" unicode="ň"/><glyph d="M475 1030l17 -178q43 94 131 146.5t180 52.5q182 0 274 -112t92 -312v-627h-174v627q0 137 -55 202.5t-174 65.5q-80 0 -136.5 -43t-85 -114.5t-40.5 -142.5t-12 -146v-449h-175v1030h158zM563 1341l-436 -237l-57 82l403 293z" glyph-name="napostrophe" unicode="ŉ"/><glyph d="M932 -102l-623 1290v-1188h-178v1434h236l571 -1188v1188h178v-1434q0 -219 -110.5 -322.5t-278.5 -103.5q-88 0 -178 23v174q82 -45 178 -45q164 0 205 172z" glyph-name="Eng" unicode="Ŋ"/><glyph d="M664 1053q180 0 272 -113t92 -313v-627q0 -219 -110.5 -322.5t-278.5 -103.5q-88 0 -178 23v174q82 -45 178 -45q113 0 165 77.5t52 196.5v627q0 143 -50 206.5t-179 63.5q-80 0 -137.5 -44t-85 -115.5t-40 -142.5t-12.5 -146v-449h-174v1030h158l16 -178 q43 94 131.5 147.5t180.5 53.5z" glyph-name="eng" unicode="ŋ"/><glyph d="M84 716.5q0 114.5 14.5 216t52 199t97 167t156 112.5t219.5 43q152 0 261 -62.5t167.5 -172t84 -233.5t25.5 -269.5t-25.5 -269t-84 -233.5t-168 -172t-260.5 -62q-123 0 -219.5 43t-156 112.5t-97 166.5t-52 198.5t-14.5 216zM622.5 1288q-358.5 0 -358.5 -571.5 t358.5 -571.5t358.5 571.5t-358.5 571.5zM344 1630v146h561v-146h-561z" glyph-name="Omacron" unicode="Ō"/><glyph d="M930 516q0 164 -79 274.5t-230 110.5q-150 0 -226 -110.5t-76 -274.5t77 -274.5t228.5 -110.5t228.5 110.5t77 274.5zM624.5 -20q-231.5 0 -356.5 154.5t-125 381.5t123 381t354.5 154t358.5 -154t127 -381t-125 -381.5t-356.5 -154.5zM905 1227h-561v145h561v-145z" glyph-name="omacron" unicode="ō"/><glyph d="M84 716.5q0 114.5 14.5 216t52 199t97 167t156 112.5t219.5 43q152 0 261 -62.5t167.5 -172t84 -233.5t25.5 -269.5t-25.5 -269t-84 -233.5t-168 -172t-260.5 -62q-123 0 -219.5 43t-156 112.5t-97 166.5t-52 198.5t-14.5 216zM622.5 1288q-358.5 0 -358.5 -571.5 t358.5 -571.5t358.5 571.5t-358.5 571.5zM825 1858h136q0 -150 -90.5 -238t-246 -88t-245.5 88t-90 238h135q0 -88 53 -139.5t147.5 -51.5t147.5 51.5t53 139.5z" glyph-name="Obreve" unicode="Ŏ"/><glyph d="M930 516q0 164 -79 274.5t-230 110.5q-150 0 -226 -110.5t-76 -274.5t77 -274.5t228.5 -110.5t228.5 110.5t77 274.5zM624.5 -20q-231.5 0 -356.5 154.5t-125 381.5t123 381t354.5 154t358.5 -154t127 -381t-125 -381.5t-356.5 -154.5zM825 1454h136q0 -150 -90.5 -238 t-246 -88t-245.5 88.5t-90 237.5h135q0 -88 53 -139t147.5 -51t147.5 51t53 139z" glyph-name="obreve" unicode="ŏ"/><glyph d="M84 716.5q0 114.5 14.5 216t52 199t97 167t156 112.5t219.5 43q152 0 261 -62.5t167.5 -172t84 -233.5t25.5 -269.5t-25.5 -269t-84 -233.5t-168 -172t-260.5 -62q-123 0 -219.5 43t-156 112.5t-97 166.5t-52 198.5t-14.5 216zM622.5 1288q-358.5 0 -358.5 -571.5 t358.5 -571.5t358.5 571.5t-358.5 571.5zM342 1509l-57 82l403 295l90 -139zM772 1509l-55 82l403 295l90 -139z" glyph-name="Ohungarumlaut" unicode="Ő"/><glyph d="M930 516q0 164 -79 274.5t-230 110.5q-150 0 -226 -110.5t-76 -274.5t77 -274.5t228.5 -110.5t228.5 110.5t77 274.5zM624.5 -20q-231.5 0 -356.5 154.5t-125 381.5t123 381t354.5 154t358.5 -154t127 -381t-125 -381.5t-356.5 -154.5zM778 1343l-436 -237l-57 82 l403 295zM1210 1343l-438 -237l-55 82l403 295z" glyph-name="ohungarumlaut" unicode="ő"/><glyph d="M1186 0h-627q-154 0 -263.5 61.5t-166.5 168t-83 226t-26 261t26 261.5t83 226.5t167 168t263 61.5h627v-156h-449v-449h314v-157h-314v-504h449v-168zM559 168v1110q-90 0 -157.5 -39t-105.5 -95.5t-60.5 -136t-28.5 -147t-6 -143.5q0 -549 358 -549z" glyph-name="OE" unicode="Œ"/><glyph d="M520 131v770h-2q-150 0 -226.5 -110.5t-76.5 -274.5t76.5 -274.5t228.5 -110.5zM39 516q0 535 569 535q285 0 422 -132.5t137 -435.5v-34h-469v-318q84 0 157 47t112 129h178q-57 -197 -185.5 -262t-351.5 -65q-569 -1 -569 536zM698 901v-311h291q0 127 -82 219t-209 92 z" glyph-name="oe" unicode="œ"/><glyph d="M858 608l324 -608h-205l-315 596h-308v-596h-180v1434h537q215 0 344 -102.5t129 -311.5q0 -342 -326 -412zM354 1278v-526h357q133 0 213 75.5t80 192.5q0 115 -80 186.5t-213 71.5h-357zM1034 1747l-436 -238l-55 82l403 295z" glyph-name="Racute" unicode="Ŕ"/><glyph d="M455 0h-172v1030h157l15 -178q43 92 144 145.5t200 53.5q158 0 247 -87t107 -247h-170q-8 90 -71.5 133t-157.5 43q-88 0 -150.5 -43t-92.5 -113.5t-43 -141.5t-13 -146v-449zM557 1106l-55 82l403 295l88 -140z" glyph-name="racute" unicode="ŕ"/><glyph d="M858 608l324 -608h-205l-315 596h-308v-596h-180v1434h537q215 0 344 -102.5t129 -311.5q0 -342 -326 -412zM354 1278v-526h357q133 0 213 75.5t80 192.5q0 115 -80 186.5t-213 71.5h-357zM573 0h158l-172 -446l-186 88z" glyph-name="Rcommaaccent" unicode="Ŗ"/><glyph d="M455 0h-172v1030h157l15 -178q43 92 144 145.5t200 53.5q158 0 247 -87t107 -247h-170q-8 90 -71.5 133t-157.5 43q-88 0 -150.5 -43t-92.5 -113.5t-43 -141.5t-13 -146v-449z" glyph-name="rcommaaccent" unicode="ŗ"/><glyph d="M858 608l324 -608h-205l-315 596h-308v-596h-180v1434h537q215 0 344 -102.5t129 -311.5q0 -342 -326 -412zM354 1278v-526h357q133 0 213 75.5t80 192.5q0 115 -80 186.5t-213 71.5h-357zM604 1638l238 244l90 -90l-264 -268h-127l-265 268l91 90z" glyph-name="Rcaron" unicode="Ř"/><glyph d="M455 0h-172v1030h157l15 -178q43 92 144 145.5t200 53.5q158 0 247 -87t107 -247h-170q-8 90 -71.5 133t-157.5 43q-88 0 -150.5 -43t-92.5 -113.5t-43 -141.5t-13 -146v-449zM883 1479l90 -90l-264 -269h-127l-265 269l91 90l237 -244z" glyph-name="rcaron" unicode="ř"/><glyph d="M625 -20q-225 0 -382 122.5t-157 346.5h190q0 -131 104.5 -217.5t244.5 -86.5q346 0 346 258q0 53 -21.5 92.5t-48.5 62t-83 40.5t-93 24.5t-111 18.5h-6q-66 10 -99.5 16.5t-93 20.5t-92 30.5t-74.5 46t-63.5 65.5t-38 90.5t-16.5 119.5q0 190 148.5 307t345.5 117 q215 0 365.5 -128t150.5 -341h-191q0 133 -95 220t-230 87q-131 0 -222.5 -67.5t-91.5 -194.5q0 -55 24.5 -93t81 -61.5t101.5 -35t133 -25.5q98 -16 153.5 -28.5t133.5 -43t120 -69.5t72.5 -108.5t30.5 -162.5q0 -203 -159.5 -313t-376.5 -110zM1034 1747l-436 -238l-55 82 l403 295z" glyph-name="Sacute" unicode="Ś"/><glyph d="M631 895q-92 0 -161 -37t-69 -119q0 -39 19.5 -65.5t63.5 -42t79 -22.5t105 -17q55 -8 81.5 -13.5t78 -17.5t78 -24.5t62.5 -35t54 -50t31.5 -68.5t13.5 -92q0 -106 -69.5 -180t-164 -102.5t-202.5 -28.5q-172 0 -310.5 93t-138.5 263h174q0 -109 79 -157t196 -48 q262 0 262 160q0 41 -20.5 70.5t-67.5 48t-85 26.5t-110 21q-74 12 -111.5 20t-98 29.5t-92.5 48.5t-56.5 74t-24.5 110q0 147 120 229.5t286 82.5q162 0 281.5 -88.5t119.5 -245.5h-176q0 80 -71.5 129t-155.5 49zM1055 1343l-437 -237l-55 82l404 295z" glyph-name="sacute" unicode="ś"/><glyph d="M625 -20q-225 0 -382 122.5t-157 346.5h190q0 -131 104.5 -217.5t244.5 -86.5q346 0 346 258q0 53 -21.5 92.5t-48.5 62t-83 40.5t-93 24.5t-111 18.5h-6q-66 10 -99.5 16.5t-93 20.5t-92 30.5t-74.5 46t-63.5 65.5t-38 90.5t-16.5 119.5q0 190 148.5 307t345.5 117 q215 0 365.5 -128t150.5 -341h-191q0 133 -95 220t-230 87q-131 0 -222.5 -67.5t-91.5 -194.5q0 -55 24.5 -93t81 -61.5t101.5 -35t133 -25.5q98 -16 153.5 -28.5t133.5 -43t120 -69.5t72.5 -108.5t30.5 -162.5q0 -203 -159.5 -313t-376.5 -110zM688 1882l264 -268l-90 -90 l-237 243l-238 -243l-90 90l264 268h127z" glyph-name="Scircumflex" unicode="Ŝ"/><glyph d="M631 895q-92 0 -161 -37t-69 -119q0 -39 19.5 -65.5t63.5 -42t79 -22.5t105 -17q55 -8 81.5 -13.5t78 -17.5t78 -24.5t62.5 -35t54 -50t31.5 -68.5t13.5 -92q0 -106 -69.5 -180t-164 -102.5t-202.5 -28.5q-172 0 -310.5 93t-138.5 263h174q0 -109 79 -157t196 -48 q262 0 262 160q0 41 -20.5 70.5t-67.5 48t-85 26.5t-110 21q-74 12 -111.5 20t-98 29.5t-92.5 48.5t-56.5 74t-24.5 110q0 147 120 229.5t286 82.5q162 0 281.5 -88.5t119.5 -245.5h-176q0 80 -71.5 129t-155.5 49zM688 1479l264 -269l-90 -90l-237 244l-238 -244l-90 90 l264 269h127z" glyph-name="scircumflex" unicode="ŝ"/><glyph d="M584 -18q-213 12 -355.5 134t-142.5 333h190q0 -131 104.5 -217.5t244.5 -86.5q346 0 346 258q0 53 -21.5 92.5t-48.5 62t-83 40.5t-93 24.5t-111 18.5h-6q-66 10 -99.5 16.5t-93 20.5t-92 30.5t-74.5 46t-63.5 65.5t-38 90.5t-16.5 119.5q0 190 148.5 307t345.5 117 q215 0 365.5 -128t150.5 -341h-191q0 133 -95 220t-230 87q-131 0 -222.5 -67.5t-91.5 -194.5q0 -55 24.5 -93t81 -61.5t101.5 -35t133 -25.5q98 -16 153.5 -28.5t133.5 -43t120 -69.5t72.5 -108.5t30.5 -162.5q0 -174 -120.5 -280.5t-303.5 -134.5q57 -59 68.5 -133 t-18 -135.5t-103.5 -103.5t-174 -42q-35 0 -70 6v166q31 -14 70 -14q72 0 101.5 43t18.5 99.5t-46 107.5z" glyph-name="Scedilla" unicode="Ş"/><glyph d="M582 -18q-160 14 -280 105t-120 249h174q0 -109 79 -157t196 -48q262 0 262 160q0 41 -20.5 70.5t-67.5 48t-85 26.5t-110 21q-74 12 -111.5 20t-98 29.5t-92.5 48.5t-56.5 74t-24.5 110q0 147 120 229.5t286 82.5q162 0 281.5 -88.5t119.5 -245.5h-176q0 80 -71.5 129 t-155.5 49q-92 0 -161 -37t-69 -119q0 -39 19.5 -65.5t63.5 -42t79 -22.5t105 -17q55 -8 81.5 -13.5t78 -17.5t78 -24.5t62.5 -35t54 -50t31.5 -68.5t13.5 -92q0 -131 -93 -206t-237 -97q57 -59 68.5 -133t-18 -135.5t-103.5 -103.5t-174 -42q-35 0 -70 6v166q31 -14 70 -14 q72 0 101.5 43t18.5 100.5t-48 106.5z" glyph-name="scedilla" unicode="ş"/><glyph d="M625 -20q-225 0 -382 122.5t-157 346.5h190q0 -131 104.5 -217.5t244.5 -86.5q346 0 346 258q0 53 -21.5 92.5t-48.5 62t-83 40.5t-93 24.5t-111 18.5h-6q-66 10 -99.5 16.5t-93 20.5t-92 30.5t-74.5 46t-63.5 65.5t-38 90.5t-16.5 119.5q0 190 148.5 307t345.5 117 q215 0 365.5 -128t150.5 -341h-191q0 133 -95 220t-230 87q-131 0 -222.5 -67.5t-91.5 -194.5q0 -55 24.5 -93t81 -61.5t101.5 -35t133 -25.5q98 -16 153.5 -28.5t133.5 -43t120 -69.5t72.5 -108.5t30.5 -162.5q0 -203 -159.5 -313t-376.5 -110zM625 1638l237 244l90 -90 l-264 -268h-127l-264 268l90 90z" glyph-name="Scaron" unicode="Š"/><glyph d="M631 895q-92 0 -161 -37t-69 -119q0 -39 19.5 -65.5t63.5 -42t79 -22.5t105 -17q55 -8 81.5 -13.5t78 -17.5t78 -24.5t62.5 -35t54 -50t31.5 -68.5t13.5 -92q0 -106 -69.5 -180t-164 -102.5t-202.5 -28.5q-172 0 -310.5 93t-138.5 263h174q0 -109 79 -157t196 -48 q262 0 262 160q0 41 -20.5 70.5t-67.5 48t-85 26.5t-110 21q-74 12 -111.5 20t-98 29.5t-92.5 48.5t-56.5 74t-24.5 110q0 147 120 229.5t286 82.5q162 0 281.5 -88.5t119.5 -245.5h-176q0 80 -71.5 129t-155.5 49zM625 1235l237 244l90 -90l-264 -269h-127l-264 269l90 90z " glyph-name="scaron" unicode="š"/><glyph d="M715 0h71q84 -78 85 -179.5t-80.5 -174t-219.5 -72.5q-35 0 -71 6v166q35 -14 71 -14q76 0 103.5 48t11.5 109.5t-57 110.5h-94v1278h-492v156h1163v-156h-491v-1278z" glyph-name="Tcommaaccent" unicode="Ţ"/><glyph d="M713 -4q-285 70 -285 407v484h-346v143h346v313h174v-313h442v-143h-442v-484q0 -156 66.5 -214t195.5 -58q94 0 180 43v-174q-66 -16 -157 -20q53 -59 62 -131t-21.5 -132.5t-103 -101.5t-171.5 -41q-35 0 -71 6v166q35 -14 71 -14q76 0 104.5 47t12.5 108.5t-57 108.5z " glyph-name="tcommaaccent" unicode="ţ"/><glyph d="M1206 1434v-156h-491v-1278h-180v1278h-492v156h1163zM862 1882l90 -90l-264 -268h-127l-264 268l90 90l238 -244z" glyph-name="Tcaron" unicode="Ť"/><glyph d="M428 1030v313h174v-313h442v-143h-442v-484q0 -156 66.5 -214t195.5 -58q94 0 180 43v-174q-90 -20 -180 -20q-199 0 -317.5 101t-118.5 322v484h-346v143h346zM1171 1343l-436 -237l-57 84l403 291z" glyph-name="tcaron" unicode="ť"/><glyph d="M1206 1434v-156h-491v-1278h-180v1278h-492v156h1163zM344 1630v146h561v-146h-561z" glyph-name="Tbar" unicode="Ŧ"/><glyph d="M428 516h-166v146h166v225h-346v143h346v313h174v-313h442v-143h-442v-225h221v-146h-221v-113q0 -156 66.5 -214t195.5 -58q94 0 180 43v-174q-90 -20 -180 -20q-199 0 -317.5 101t-118.5 322v113z" glyph-name="tbar" unicode="ŧ"/><glyph d="M131 449v985h180v-985q0 -133 88 -218.5t226 -85.5q135 0 224 85t89 219v985h180v-985q0 -199 -145.5 -334t-348 -135t-348 135t-145.5 334zM487 1702q-57 0 -133 -76l-80 88q125 123 213 123q53 0 142.5 -44t132.5 -44q66 0 133 68l80 -88q-117 -115 -213 -115 q-53 0 -142.5 44t-132.5 44z" glyph-name="Utilde" unicode="Ũ"/><glyph d="M561 -20q-180 0 -272 111.5t-92 311.5v627h174v-627q0 -143 49 -207.5t178 -64.5q135 0 205.5 91t70.5 181v627h175v-1030h-160l-15 180q-43 -94 -131 -147t-182 -53zM487 1298q-57 0 -133 -75l-80 88q125 123 213 123q53 0 142.5 -44t132.5 -44q66 0 133 67l80 -88 q-117 -115 -213 -115q-53 0 -142.5 44t-132.5 44z" glyph-name="utilde" unicode="ũ"/><glyph d="M131 449v985h180v-985q0 -133 88 -218.5t226 -85.5q135 0 224 85t89 219v985h180v-985q0 -199 -145.5 -334t-348 -135t-348 135t-145.5 334zM344 1630v146h561v-146h-561z" glyph-name="Umacron" unicode="Ū"/><glyph d="M561 -20q-180 0 -272 111.5t-92 311.5v627h174v-627q0 -143 49 -207.5t178 -64.5q135 0 205.5 91t70.5 181v627h175v-1030h-160l-15 180q-43 -94 -131 -147t-182 -53zM905 1227h-561v145h561v-145z" glyph-name="umacron" unicode="ū"/><glyph d="M131 449v985h180v-985q0 -133 88 -218.5t226 -85.5q135 0 224 85t89 219v985h180v-985q0 -199 -145.5 -334t-348 -135t-348 135t-145.5 334zM825 1858h136q0 -150 -90.5 -238t-246 -88t-245.5 88t-90 238h135q0 -88 53 -139.5t147.5 -51.5t147.5 51.5t53 139.5z" glyph-name="Ubreve" unicode="Ŭ"/><glyph d="M561 -20q-180 0 -272 111.5t-92 311.5v627h174v-627q0 -143 49 -207.5t178 -64.5q135 0 205.5 91t70.5 181v627h175v-1030h-160l-15 180q-43 -94 -131 -147t-182 -53zM825 1454h136q0 -150 -90.5 -238t-246 -88t-245.5 88.5t-90 237.5h135q0 -88 53 -139t147.5 -51 t147.5 51t53 139z" glyph-name="ubreve" unicode="ŭ"/><glyph d="M131 449v985h180v-985q0 -133 88 -218.5t226 -85.5q135 0 224 85t89 219v985h180v-985q0 -199 -145.5 -334t-348 -135t-348 135t-145.5 334zM624.5 1958q96.5 0 155 -58.5t58.5 -146.5t-58.5 -146.5t-155 -58.5t-154.5 58.5t-58 146.5t58 146.5t154.5 58.5zM624.5 1638 q49.5 0 80 34t30.5 81q0 49 -30.5 82t-80 33t-80 -33t-30.5 -82q0 -47 30.5 -81t80 -34z" glyph-name="Uring" unicode="Ů"/><glyph d="M561 -20q-180 0 -272 111.5t-92 311.5v627h174v-627q0 -143 49 -207.5t178 -64.5q135 0 205.5 91t70.5 181v627h175v-1030h-160l-15 180q-43 -94 -131 -147t-182 -53zM624.5 1554q96.5 0 155 -58t58.5 -146t-58.5 -146.5t-155 -58.5t-154.5 58.5t-58 146.5t58 146 t154.5 58zM624.5 1235q49.5 0 80 34t30.5 81q0 49 -30.5 81.5t-80 32.5t-80 -32.5t-30.5 -81.5q0 -47 30.5 -81t80 -34z" glyph-name="uring" unicode="ů"/><glyph d="M131 449v985h180v-985q0 -133 88 -218.5t226 -85.5q135 0 224 85t89 219v985h180v-985q0 -199 -145.5 -334t-348 -135t-348 135t-145.5 334zM342 1509l-57 82l403 295l90 -139zM772 1509l-55 82l403 295l90 -139z" glyph-name="Uhungarumlaut" unicode="Ű"/><glyph d="M561 -20q-180 0 -272 111.5t-92 311.5v627h174v-627q0 -143 49 -207.5t178 -64.5q135 0 205.5 91t70.5 181v627h175v-1030h-160l-15 180q-43 -94 -131 -147t-182 -53zM778 1343l-436 -237l-57 82l403 295zM1210 1343l-438 -237l-55 82l403 295z" glyph-name="uhungarumlaut" unicode="ű"/><glyph d="M764 -2q-41 -49 -57.5 -109.5t12.5 -108.5t104 -48q39 0 70 14v-166q-33 -6 -70 -6q-100 0 -172.5 41t-103.5 101.5t-21.5 133t62.5 132.5q-193 12 -325 144t-132 323v985h180v-985q0 -133 88 -218.5t226 -85.5q135 0 224 85t89 219v985h180v-985q0 -162 -99 -285 t-255 -166z" glyph-name="Uogonek" unicode="Ų"/><glyph d="M889 0l-15 180q-43 -94 -131 -147t-182 -53q-180 0 -272 111.5t-92 311.5v627h174v-627q0 -143 49 -207.5t178 -64.5q135 0 205.5 91t70.5 181v627h175l-2 -1030q-41 -49 -57.5 -110.5t11 -109.5t103.5 -48q37 0 72 14v-166q-37 -6 -72 -6q-137 0 -219 72.5t-81 174 t85 179.5z" glyph-name="uogonek" unicode="ų"/><glyph d="M66 1434h178l45 -1121l246 672h180l246 -672l45 1121h178l-101 -1434h-178l-280 829l-281 -829h-178zM952 1614l-90 -90l-237 243l-238 -243l-90 90l264 268h127z" glyph-name="Wcircumflex" unicode="Ŵ"/><glyph d="M893 180l96 850h172l-139 -1030h-197l-200 582l-201 -582h-197l-141 1030h174l96 -850l201 584h135zM688 1479l264 -269l-90 -90l-237 244l-238 -244l-90 90l264 269h127z" glyph-name="wcircumflex" unicode="ŵ"/><glyph d="M715 582v-582h-180v582l-525 852h199l416 -684l413 684h201zM688 1882l264 -268l-90 -90l-237 243l-238 -243l-90 90l264 268h127z" glyph-name="Ycircumflex" unicode="Ŷ"/><glyph d="M160 -424v172q78 -41 180 -41q111 0 156 115l67 168l-448 1040h202l338 -850l334 850h201l-508 -1208q-57 -133 -130 -199.5t-212 -66.5q-94 0 -180 20zM688 1479l264 -269l-90 -90l-237 244l-238 -244l-90 90l264 269h127z" glyph-name="ycircumflex" unicode="ŷ"/><glyph d="M715 582v-582h-180v582l-525 852h199l416 -684l413 684h201zM541 1636h-201v201h201v-201zM909 1636h-200v201h200v-201z" glyph-name="Ydieresis" unicode="Ÿ"/><glyph d="M1141 0h-1032v180l806 1098h-784v156h987v-179l-807 -1087h830v-168zM1034 1747l-436 -238l-55 82l403 295z" glyph-name="Zacute" unicode="Ź"/><glyph d="M1051 141v-141h-852v158l626 729h-626v143h852v-133l-650 -756h650zM1055 1343l-437 -237l-55 82l404 295z" glyph-name="zacute" unicode="ź"/><glyph d="M1141 0h-1032v180l806 1098h-784v156h987v-179l-807 -1087h830v-168zM725 1636h-201v201h201v-201z" glyph-name="Zdotaccent" unicode="Ż"/><glyph d="M1051 141v-141h-852v158l626 729h-626v143h852v-133l-650 -756h650zM725 1233h-201v201h201v-201z" glyph-name="zdotaccent" unicode="ż"/><glyph d="M1141 0h-1032v180l806 1098h-784v156h987v-179l-807 -1087h830v-168zM645 1638l238 244l90 -90l-264 -268h-127l-265 268l91 90z" glyph-name="Zcaron" unicode="Ž"/><glyph d="M1051 141v-141h-852v158l626 729h-626v143h852v-133l-650 -756h650zM625 1235l237 244l90 -90l-264 -269h-127l-264 269l90 90z" glyph-name="zcaron" unicode="ž"/><glyph d="M657 0h-174v1030q0 205 113 314.5t266 109.5q33 0 70 -6v-166q-35 14 -70 14q-82 0 -143.5 -64.5t-61.5 -201.5v-1030z" glyph-name="longs" unicode="ſ"/><glyph d="M1053 1432v-152q-23 23 -90 23q-55 0 -102.5 -41t-63.5 -121q-33 -156 -58 -279h291v-155h-321l-131 -660q-25 -127 -106 -203.5t-183 -76.5q-86 0 -135 20v152q27 -23 90 -23q55 0 103 42t65 122l125 627h-201v155h231q14 76 62 312q25 127 105.5 203.5t183.5 76.5 q80 1 135 -22z" glyph-name="florin" unicode="ƒ"/><glyph d="M622.5 1288q-358.5 0 -358.5 -571.5t358.5 -571.5t358.5 571.5t-358.5 571.5zM952 1626h146q0 -195 -154 -276q217 -182 217 -633q0 -145 -25.5 -269t-84 -234t-168 -172t-260.5 -62q-123 0 -219.5 43t-156 112.5t-97 166.5t-52 198.5t-14.5 216t14.5 216t52 199t97 167 t156 112.5t219.5 43q88 0 155 -20q82 6 128 57t46 135z" glyph-name="Ohorn" unicode="Ơ"/><glyph d="M930 516q0 164 -79 274.5t-230 110.5q-150 0 -226 -110.5t-76 -274.5t77 -274.5t228.5 -110.5t228.5 110.5t77 274.5zM954 1223h146q0 -201 -164 -283q170 -147 170 -424q0 -227 -125 -381.5t-356.5 -154.5t-356.5 154.5t-125 381.5t123 381t355 154q86 0 149 -21 q86 4 135 55.5t49 137.5z" glyph-name="ohorn" unicode="ơ"/><glyph d="M1098 1626h145q0 -113 -54 -190.5t-153 -108.5v-878q0 -199 -145.5 -334t-348 -135t-348 135t-145.5 334v985h180v-985q0 -133 88.5 -218.5t225.5 -85.5q135 0 224 85t89 219v985h45q92 0 144.5 52t52.5 140z" glyph-name="Uhorn" unicode="Ư"/><glyph d="M1057 1223h145q0 -109 -51 -185.5t-143 -109.5v-928h-160l-14 180q-43 -94 -131.5 -147t-182.5 -53q-180 0 -272 111.5t-92 311.5v627h174v-627q0 -143 49 -207.5t178 -64.5q135 0 206 91t71 181v627h26q92 0 144.5 52.5t52.5 140.5z" glyph-name="uhorn" unicode="ư"/><glyph d="M993 594h-278v156h446v-750h-133l-35 201q-45 -90 -144 -155.5t-224 -65.5q-123 0 -219.5 43t-156 112.5t-97 166.5t-52 198.5t-14.5 216t14.5 216t52 199t97 167t156 112.5t219.5 43q242 0 370.5 -131t155.5 -338h-184q-61 303 -342 303q-358 0 -359 -571 q0 -78 7.5 -146.5t30 -150.5t61 -139.5t108.5 -96.5t162 -39q358 0 358 449zM434 1509l-55 82l403 295l88 -139z" glyph-name="uni01F4" unicode="Ǵ"/><glyph d="M610 291q-109 0 -202 49q-23 -8 -38.5 -34.5t-15.5 -51.5q0 -41 46 -71.5t120 -30.5h90q494 0 494 -322t-494 -322q-184 0 -316 84t-132 244q0 76 32.5 123t96.5 88q-111 66 -95.5 177.5t130.5 174.5q-115 109 -115 273q0 166 114.5 272.5t284.5 106.5q162 0 271 -90 l110 182l146 -113l-170 -172q47 -82 47 -186q0 -166 -116 -273.5t-288 -107.5zM610 0h-90q-37 0 -55 2q-133 -37 -133 -160q0 -70 60.5 -127t217.5 -57q313 0 314 172q-1 170 -314 170zM610 901q-100 0 -166.5 -64.5t-66.5 -164.5q0 -98 66.5 -160.5t166.5 -62.5 q102 0 169 62t67 161q0 100 -67 164.5t-169 64.5zM1055 1343l-437 -237l-55 82l404 295z" glyph-name="uni01F5" unicode="ǵ"/><glyph d="M625 1683q-57 0 -90 -34.5t-33 -90t32.5 -90t90.5 -34.5q55 0 87.5 34.5t32.5 90t-32.5 90t-87.5 34.5zM614 1255l-202 -649h415zM1118 1927l-338 -184q86 -63 86 -184q0 -145 -123 -207l465 -1352h-180l-147 449h-519l-141 -449h-180l448 1360q-109 66 -108 199 q0 102 66.5 167.5t177.5 65.5h26l377 274z" glyph-name="Aringacute" unicode="Ǻ"/><glyph d="M848 498q-92 0 -137 -1t-117 -7.5t-108.5 -20.5t-76.5 -38.5t-56.5 -65.5t-16.5 -97q0 -131 186 -131q35 0 68 4t85 25.5t89 56.5t62.5 107t21.5 168zM618 1051q178 0 290 -113t112 -305v-365l55 -268h-157l-56 158q-43 -70 -143.5 -124t-204.5 -54q-172 0 -265 87 t-93 201q0 59 15 108.5t38.5 85.5t65.5 63.5t78 45t94.5 29.5t98.5 18.5t105.5 10.5t99 4h97.5q0 260 -232 260q-98 0 -164.5 -43t-74.5 -133h-170q0 156 125.5 245t285.5 89zM1051 1700l-316 -172q102 -53 103 -178q0 -88 -58.5 -146.5t-155 -58.5t-154.5 58.5t-58 146.5 q0 72 38.5 124t106.5 72l404 293zM625 1464h-13q-45 -4 -71.5 -36.5t-26.5 -77.5q0 -47 30.5 -81t80 -34t80 34t30.5 81q0 49 -30.5 81.5t-79.5 32.5z" glyph-name="aringacute" unicode="ǻ"/><glyph d="M1186 1434v-156h-447v-449h314v-157h-314v-504h447v-168h-627v449h-252l-139 -449h-182l473 1434h727zM356 606h203v645zM434 1509l-55 82l403 295l88 -139z" glyph-name="AEacute" unicode="Ǽ"/><glyph d="M698 901v-311h291q0 127 -82 219t-209 92zM520 590v311q-92 0 -161.5 -50t-102.5 -134h-178q47 176 178 255t352 79q285 0 422 -132.5t137 -435.5v-34h-469v-318q88 0 160 48t109 128h178q-57 -197 -185.5 -262t-351.5 -65h-88q-61 0 -98 1t-94.5 7t-92 17t-76.5 33.5 t-64.5 54.5t-39 80t-16.5 112q0 61 16.5 110t39 81t64.5 54.5t76.5 33.5t92 17.5t94.5 7.5t98 1zM219 289q0 -53 20.5 -87t61.5 -48.5t76 -18.5t90 -4h18h35v318h-31q-49 0 -75.5 -1.5t-69.5 -9.5t-65.5 -23.5t-41 -48t-18.5 -77.5zM870 1343l-436 -237l-55 82l403 295z" glyph-name="aeacute" unicode="ǽ"/><glyph d="M1083 1479l123 -97l-139 -190q94 -182 94 -475q0 -145 -25.5 -268t-83 -234t-167 -173t-260.5 -62q-223 0 -349 129l-112 -154l-123 96l139 191q-94 182 -94 475q0 145 25.5 269t84 233.5t168 172t261.5 62.5q217 0 348 -127zM266 717q0 -184 37 -305l561 768 q-86 106 -239 106q-359 0 -359 -569zM625 147q358 0 358 570q0 178 -39 307l-561 -770q86 -107 242 -107zM870 1747l-436 -238l-55 82l403 295z" glyph-name="Oslashacute" unicode="Ǿ"/><glyph d="M881 989l112 154l123 -96l-117 -162q115 -150 115 -369q0 -227 -126 -383t-355 -156q-139 0 -250 64l-129 -174l-123 94l133 184q-115 150 -114 371q0 227 125.5 382t357.5 155q144 -1 248 -64zM891 737l-414 -565q70 -43 156 -43q150 0 227.5 111.5t77.5 275.5 q0 121 -47 221zM373 293l413 567q-70 43 -157 43q-150 0 -225.5 -111.5t-75.5 -275.5q0 -127 45 -223zM434 1104l-55 82l403 293l88 -138z" glyph-name="oslashacute" unicode="ǿ"/><glyph d="M406 -358l190 338q-217 8 -363.5 130.5t-146.5 338.5h190q0 -131 104.5 -217.5t244.5 -86.5q346 0 346 258q0 53 -21.5 92.5t-48.5 62t-83 40.5t-93 24.5t-111 18.5h-6q-66 10 -99.5 16.5t-93 20.5t-92 30.5t-74.5 46t-63.5 65.5t-38 90.5t-16.5 119.5q0 190 148.5 307 t345.5 117q215 0 365.5 -128t150.5 -341h-191q0 133 -95 220t-230 87q-131 0 -222.5 -67.5t-91.5 -194.5q0 -55 24.5 -93t81 -61.5t101.5 -35t133 -25.5q98 -16 153.5 -28.5t133.5 -43t120 -69.5t72.5 -108.5t30.5 -162.5q0 -168 -113.5 -274t-285.5 -137l-170 -438z" glyph-name="Scommaaccent" unicode="Ș"/><glyph d="M410 -358l190 340q-166 8 -292 100t-126 254h174q0 -109 79 -157t196 -48q262 0 262 160q0 41 -20.5 70.5t-67.5 48t-85 26.5t-110 21q-74 12 -111.5 20t-98 29.5t-92.5 48.5t-56.5 74t-24.5 110q0 147 120 229.5t286 82.5q162 0 281.5 -88.5t119.5 -245.5h-176 q0 80 -71.5 129t-155.5 49q-92 0 -161 -37t-69 -119q0 -39 19.5 -65.5t63.5 -42t79 -22.5t105 -17q55 -8 81.5 -13.5t78 -17.5t78 -24.5t62.5 -35t54 -50t31.5 -68.5t13.5 -92q0 -125 -85 -199t-218 -100l-168 -438z" glyph-name="scommaaccent" unicode="ș"/><glyph d="M782 0l-174 -446l-184 88l201 358h-90v1278h-492v156h1163v-156h-491v-1278h67z" glyph-name="uni021A" unicode="Ț"/><glyph d="M502 -358l200 356q-274 76 -274 405v484h-346v143h346v313h174v-313h442v-143h-442v-484q0 -156 66.5 -214t195.5 -58q94 0 180 43v-174q-90 -20 -180 -20l-176 -426z" glyph-name="uni021B" unicode="ț"/><glyph d="M365 1030h524v-1053q0 -219 -110.5 -322.5t-278.5 -103.5q-86 0 -181 23v174q86 -45 181 -45q102 0 158.5 70.5t56.5 203.5v912h-350v141z" glyph-name="uni0237" unicode="ȷ"/><glyph d="M434 1106l-57 82l403 295l90 -140z" glyph-name="afii57929" unicode="ʼ"/><glyph d="M952 1210l-90 -90l-237 244l-240 -244l-88 90l262 269h129z" glyph-name="circumflex" unicode="ˆ"/><glyph d="M862 1479l90 -90l-264 -269h-129l-262 269l88 90l240 -244z" glyph-name="caron" unicode="ˇ"/><glyph d="M905 1288h-561v146h561v-146z" glyph-name="uni02C9" unicode="ˉ"/><glyph d="M825 1454h136q0 -150 -90.5 -238t-246 -88t-245.5 88.5t-90 237.5h135q0 -88 53 -139t147.5 -51t147.5 51t53 139z" glyph-name="breve" unicode="˘"/><glyph d="M725 1233h-201v201h201v-201z" glyph-name="dotaccent" unicode="˙"/><glyph d="M624.5 1554q96.5 0 155 -58t58.5 -146t-58.5 -146.5t-155 -58.5t-154.5 58.5t-58 146.5t58 146t154.5 58zM624.5 1235q49.5 0 80 34t30.5 81q0 49 -30.5 81.5t-80 32.5t-80 -32.5t-30.5 -81.5q0 -47 30.5 -81t80 -34z" glyph-name="ring" unicode="˚"/><glyph d="M502 0h160q-43 -49 -59.5 -110.5t11 -109.5t105.5 -48q39 0 69 14v-166q-37 -6 -69 -6q-104 0 -179 44t-102.5 108.5t-12 139.5t76.5 134z" glyph-name="ogonek" unicode="˛"/><glyph d="M487 1298q-59 0 -133 -75l-80 88q125 123 213 123q53 0 142.5 -44t132.5 -44q66 0 131 67l82 -88q-121 -115 -213 -115q-55 0 -143.5 44t-131.5 44z" glyph-name="tilde" unicode="˜"/><glyph d="M217 1106l-55 82l403 295l90 -140zM649 1106l-55 82l401 295l90 -140z" glyph-name="hungarumlaut" unicode="˝"/><glyph d="M725 -424h-201v201h201v-201z" glyph-name="dotbelowcomb" unicode="̣"/><glyph d="M469 743v287h309v-287h-309zM625 0h-156v287h309v-287q0 -162 -86 -260t-223 -98v135q68 0 112 65.5t44 157.5z" glyph-name="uni037E" unicode=";"/><glyph d="M567 1085l-32 349h180l-35 -349h-113z" glyph-name="tonos" unicode="΄"/><glyph d="M981 1233h-201v201h201v-201zM567 1333l-32 346h180l-35 -346h-113zM467 1233h-201v201h201v-201z" glyph-name="dieresistonos" unicode="΅"/><glyph d="M41 0l491 1434h162l512 -1434h-178l-147 449h-519l-141 -449h-180zM614 1255l-202 -649h415zM250 1085h-113l-35 349h181z" glyph-name="Alphatonos" unicode="Ά"/><glyph d="M524 717h201v-201h-201v201z" glyph-name="anoteleia" unicode="·"/><glyph d="M1157 168v-168h-799v1434h799v-158h-618v-447h483v-157h-483v-504h618zM115 1085l-33 349h180l-33 -349h-114z" glyph-name="Epsilontonos" unicode="Έ"/><glyph d="M315 0v1434h181v-605h483v605h180v-1434h-180v672h-483v-672h-181zM74 1085l-33 349h180l-35 -349h-112z" glyph-name="Etatonos" unicode="Ή"/><glyph d="M352 1434h707v-166h-264v-1102h264v-166h-707v166h264v1102h-264v166zM135 1085l-33 349h181l-35 -349h-113z" glyph-name="Iotatonos" unicode="Ί"/><glyph d="M227 716.5q0 145.5 22.5 268.5t74 233.5t148.5 173t233 62.5q109 0 193.5 -43t136.5 -112.5t86 -167t47.5 -199t13.5 -216t-13.5 -216t-47.5 -198.5t-86 -166.5t-137 -112.5t-193 -43q-135 0 -232.5 62t-149 173t-74 233.5t-22.5 268zM704.5 1288q-296.5 0 -296.5 -571.5 t296.5 -571.5t296.5 571.5t-296.5 571.5zM96 1085l-35 349h183l-35 -349h-113z" glyph-name="Omicrontonos" unicode="Ό"/><glyph d="M817 582v-582h-180v582l-422 852h199l313 -684l311 684h201zM33 1085l-33 349h180l-35 -349h-112z" glyph-name="Upsilontonos" unicode="Ύ"/><glyph d="M225 770q0 684 486 684q477 0 477 -684q0 -190 -65.5 -358t-204.5 -222v-45h247v-145h-403v262q246 86 246 508q0 532 -301 532.5t-301 -532.5q0 -424 245 -508v-262h-403v145h246v45q-137 53 -203 221.5t-66 358.5zM94 1085l-33 349h181l-35 -349h-113z" glyph-name="Omegatonos" unicode="Ώ"/><glyph d="M1147 0h-963v141h396v748h-306v141h480v-889h393v-141zM467 1233h-201v201h201v-201zM981 1233h-201v201h201v-201zM567 1333l-32 346h180l-35 -346h-113z" glyph-name="iotadieresistonos" unicode="ΐ"/><glyph d="M41 0l471 1434h203l491 -1434h-178l-147 449h-519l-141 -449h-180zM614 1255l-202 -649h415z" glyph-name="Alpha" unicode="Α"/><glyph d="M870 752q102 -37 163 -135.5t61 -213.5q0 -193 -127 -298t-322 -105h-491v1434h491q178 0 302 -102.5t124 -278.5q0 -102 -52.5 -185t-148.5 -116zM915 420q0 115 -80.5 183.5t-189.5 68.5h-313v-504h313q117 0 193.5 58.5t76.5 193.5zM881 1052.5q0 112.5 -64.5 169 t-171.5 56.5h-313v-449h313q106 0 171 55.5t65 168z" glyph-name="Beta" unicode="Β"/><glyph d="M438 0h-178v1434h895v-158h-717v-1276z" glyph-name="Gamma" unicode="Γ"/><glyph d="M41 0l471 1434h203l493 -1434h-1167zM614 1255l-340 -1087h699z" glyph-name="Delta" unicode="Δ"/><glyph d="M1096 168v-168h-942v1434h942v-158h-762v-447h627v-157h-627v-504h762z" glyph-name="Epsilon" unicode="Ε"/><glyph d="M1141 0h-1032v180l806 1098h-784v156h987v-179l-807 -1087h830v-168z" glyph-name="Zeta" unicode="Ζ"/><glyph d="M131 0v1434h180v-605h627v605h180v-1434h-180v672h-627v-672h-180z" glyph-name="Eta" unicode="Η"/><glyph d="M84 716.5q0 114.5 14.5 216t52 199t97 167t156 112.5t219.5 43q152 0 261 -62.5t167.5 -172t84 -233.5t25.5 -269.5t-25.5 -269t-84 -233.5t-168 -172t-260.5 -62q-123 0 -219.5 43t-156 112.5t-97 166.5t-52 198.5t-14.5 216zM622.5 1288q-358.5 0 -358.5 -571.5 t358.5 -571.5t358.5 571.5t-358.5 571.5zM858 801v-168h-471v168h471z" glyph-name="Theta" unicode="Θ"/><glyph d="M209 1434h829v-166h-325v-1102h325v-166h-829v166h326v1102h-326v166z" glyph-name="Iota" unicode="Ι"/><glyph d="M604 829l604 -829h-200l-516 717l-179 -178v-539h-180v1434h180v-682l682 682h213z" glyph-name="Kappa" unicode="Κ"/><glyph d="M41 0l471 1434h203l493 -1434h-180l-414 1255l-393 -1255h-180z" glyph-name="Lambda" unicode="Λ"/><glyph d="M289 1120v-1120h-180v1434h235l281 -830l280 830h236v-1434h-180v1120l-246 -671h-180z" glyph-name="Mu" unicode="Μ"/><glyph d="M311 0h-180v1434h236l571 -1188v1188h180v-1434h-235l-572 1188v-1188z" glyph-name="Nu" unicode="Ν"/><glyph d="M1141 0h-1032v180l806 1098h-784v156h987v-179l-807 -1087h830v-168zM905 1630h-561v146h561v-146z" glyph-name="Xi" unicode="Ξ"/><glyph d="M84 716.5q0 114.5 14.5 216t52 199t97 167t156 112.5t219.5 43q152 0 261 -62.5t167.5 -172t84 -233.5t25.5 -269.5t-25.5 -269t-84 -233.5t-168 -172t-260.5 -62q-123 0 -219.5 43t-156 112.5t-97 166.5t-52 198.5t-14.5 216zM622.5 1288q-358.5 0 -358.5 -571.5 t358.5 -571.5t358.5 571.5t-358.5 571.5z" glyph-name="Omicron" unicode="Ο"/><glyph d="M354 0h-178v1434h895v-1434h-178v1276h-539v-1276z" glyph-name="Pi" unicode="Π"/><glyph d="M375 1276v-524h356q133 0 213 73.5t80 188t-80 188.5t-213 74h-356zM375 594v-594h-180v1434h536q215 0 343 -103.5t128 -316.5t-128 -316.5t-343 -103.5h-356z" glyph-name="Rho" unicode="Ρ"/><glyph d="M150 1434h1030v-168h-830l426 -549l-426 -549h830v-168h-1030v180l413 537l-413 538v179z" glyph-name="Sigma" unicode="Σ"/><glyph d="M1206 1434v-156h-491v-1278h-180v1278h-492v156h1163z" glyph-name="Tau" unicode="Τ"/><glyph d="M715 582v-582h-180v582l-525 852h199l416 -684l413 684h201z" glyph-name="Upsilon" unicode="Υ"/><glyph d="M711 1434v-179q227 0 359 -155.5t132 -383t-132 -382t-359 -154.5v-180h-172v180q-227 0 -360.5 154.5t-133.5 382t133 383t361 155.5v179h172zM539 338v760q-131 0 -223.5 -113t-92.5 -268.5t92.5 -267t223.5 -111.5zM711 1098v-760q131 0 222 111.5t91 269.5 q0 156 -91 267.5t-222 111.5z" glyph-name="Phi" unicode="Φ"/><glyph d="M973 0l-348 571l-349 -571h-200l448 717l-448 717h200l349 -560l348 560h201l-449 -717l449 -717h-201z" glyph-name="Chi" unicode="Χ"/><glyph d="M143 358v1076h172v-934h222v934h174v-934h221v934h174v-1076h-395v-358h-174v358h-394z" glyph-name="Psi" unicode="Ψ"/><glyph d="M82 770q0 684 547 684q537 0 536 -684q0 -193 -64.5 -359.5t-203.5 -220.5v-45h246v-145h-402v264q246 82 246 506q0 532 -362 533q-365 0 -365 -533q0 -424 248 -506v-264h-404v145h246v45q-137 53 -202.5 221.5t-65.5 358.5z" glyph-name="Omega" unicode="Ω"/><glyph d="M209 1434h829v-166h-325v-1102h325v-166h-829v166h326v1102h-326v166zM541 1636h-201v201h201v-201zM909 1636h-200v201h200v-201z" glyph-name="Iotadieresis" unicode="Ϊ"/><glyph d="M541 1636h-201v201h201v-201zM909 1636h-200v201h200v-201zM715 582v-582h-180v582l-525 852h199l416 -684l413 684h201z" glyph-name="Upsilondieresis" unicode="Ϋ"/><glyph d="M1055 1030v-1030h-174v135q-45 -66 -132 -110.5t-180 -44.5q-150 0 -256 77.5t-153 195.5t-47 259q0 223 118.5 381t337.5 158q92 0 180.5 -40t131.5 -110v129h174zM569 131q92 0 158 37t96.5 97.5t44 120.5t13.5 126q0 51 -7.5 101.5t-29 103.5t-55 93t-91 65.5 t-131.5 25.5q-137 0 -205.5 -111.5t-68.5 -277.5q0 -162 69.5 -271.5t206.5 -109.5zM618 1106h-112l-33 348h180z" glyph-name="alphatonos" unicode="ά"/><glyph d="M416 537q-141 70 -142 219q0 133 101.5 215t265.5 82q170 0 271.5 -90.5t101.5 -245.5h-176q0 82 -49.5 138t-147.5 56q-94 0 -142 -48t-48 -111.5t53 -102.5t162 -39h22v-143h-22q-121 0 -172.5 -50t-51.5 -114q0 -68 54.5 -123t144.5 -55q92 0 148.5 59.5t56.5 128.5 h178q0 -156 -107.5 -246t-271.5 -90t-271.5 88.5t-107.5 233.5q0 164 150 238zM567 1106l-32 348h180l-35 -348h-113z" glyph-name="epsilontonos" unicode="έ"/><glyph d="M745 1053q180 0 272.5 -113t92.5 -313v-985h-172v985q0 143 -50 206.5t-179 63.5q-80 0 -137.5 -44t-85 -115.5t-40 -142.5t-12.5 -146v-449h-174v1030h158l16 -178q43 94 131 147.5t180 53.5zM803 1106h-113l-33 348h181z" glyph-name="etatonos" unicode="ή"/><glyph d="M1147 0h-963v141h396v748h-306v141h480v-889h393v-141zM721 1106h-113l-33 348h181z" glyph-name="iotatonos" unicode="ί"/><glyph d="M981 1233h-201v201h201v-201zM567 1333l-32 346h180l-35 -346h-113zM467 1233h-201v201h201v-201zM199 403v627h174v-627q0 -121 70.5 -197.5t181.5 -76.5q109 0 180.5 77t71.5 197v627h172v-627q0 -227 -116 -326.5t-308.5 -99.5t-309 99.5t-116.5 326.5z" glyph-name="upsilondieresistonos" unicode="ΰ"/><glyph d="M1055 1030v-1030h-174v135q-45 -66 -132 -110.5t-180 -44.5q-150 0 -256 77.5t-153 195.5t-47 259q0 223 118.5 381t337.5 158q92 0 180.5 -40t131.5 -110v129h174zM569 131q92 0 158 37t96.5 97.5t44 120.5t13.5 126q0 51 -7.5 101.5t-29 103.5t-55 93t-91 65.5 t-131.5 25.5q-137 0 -205.5 -111.5t-68.5 -277.5q0 -162 69.5 -271.5t206.5 -109.5z" glyph-name="alpha" unicode="α"/><glyph d="M1133 420q0 -201 -119 -316.5t-309 -115.5q-80 0 -154 22v146q55 -18 119 -19q129 0 210 72t81 211q0 174 -93.5 235.5t-271.5 61.5v141q139 0 212 51.5t73 188.5q0 109 -59.5 174t-170.5 65q-115 0 -177 -84t-62 -223v-1388h-174v1388q0 211 109.5 330t303.5 119 q184 0 295 -102.5t111 -268.5q0 -111 -61.5 -197t-159.5 -112q133 -18 215 -126t82 -253z" glyph-name="beta" unicode="β"/><glyph d="M287 1030l338 -850l336 850h200l-450 -1040v-348h-174v348l-451 1040h201z" glyph-name="gamma" unicode="γ"/><glyph d="M991 1311h-467q231 -115 406.5 -335t175.5 -460q0 -227 -126 -383t-357.5 -156t-356.5 156t-125 383q0 219 128 367.5t339 148.5q31 0 47 -2q-63 72 -180 151t-223 130v145h739v-145zM622.5 145q151.5 0 228.5 104.5t77 266.5q0 158 -78 263.5t-227 105.5 q-152 0 -228 -103.5t-76 -265.5q0 -164 76 -267.5t227.5 -103.5z" glyph-name="delta" unicode="δ"/><glyph d="M416 537q-141 70 -142 219q0 133 101.5 215t265.5 82q170 0 271.5 -90.5t101.5 -245.5h-176q0 82 -49.5 138t-147.5 56q-94 0 -142 -48t-48 -111.5t53 -102.5t162 -39h22v-143h-22q-121 0 -172.5 -50t-51.5 -114q0 -68 54.5 -123t144.5 -55q92 0 148.5 59.5t56.5 128.5 h178q0 -156 -107.5 -246t-271.5 -90t-271.5 88.5t-107.5 233.5q0 164 150 238z" glyph-name="epsilon" unicode="ε"/><glyph d="M713 1300h-467v156h760v-156q-111 -78 -180.5 -132t-165 -143t-149.5 -168t-94 -184.5t-40 -213.5q0 -139 87 -231.5t281 -92.5q125 0 200 -24.5t114 -90t51 -148.5t12 -230h-178q0 102 -7 163.5t-16.5 98.5t-39 52t-54 18t-82.5 3q-545 0 -544 482q0 111 26.5 209 t63.5 170.5t112.5 159.5t136 144.5t173.5 157.5z" glyph-name="zeta" unicode="ζ"/><glyph d="M745 1053q180 0 272.5 -113t92.5 -313v-985h-172v985q0 143 -50 206.5t-179 63.5q-80 0 -137.5 -44t-85 -115.5t-40 -142.5t-12.5 -146v-449h-174v1030h158l16 -178q43 94 131 147.5t180 53.5z" glyph-name="eta" unicode="η"/><glyph d="M625 -20q-494 0 -494 737t494 737q492 0 492 -737t-492 -737zM936 657h-625q0 -141 24.5 -249.5t97.5 -188.5t192 -80q88 0 152.5 44t97 121t47 164t14.5 189zM311 803h625q-20 492 -311 491q-294 1 -314 -491z" glyph-name="theta" unicode="θ"/><glyph d="M1147 0h-963v141h396v748h-306v141h480v-889h393v-141z" glyph-name="iota" unicode="ι"/><glyph d="M420 444v-444h-174v1030h174v-444h178l285 444h200l-329 -514l329 -516h-200l-285 444h-178z" glyph-name="kappa" unicode="κ"/><glyph d="M160 1282v172q86 20 180 21q139 0 212 -67t130 -200l508 -1208h-201l-334 850l-338 -850h-202l448 1040l-67 168q-45 115 -156 115q-102 0 -180 -41z" glyph-name="lambda" unicode="λ"/><glyph d="M604 -23q-111 0 -190 46v-381h-174v1388h174v-627q0 -143 49 -208.5t178 -65.5q135 0 206 92t71 182v627h172v-1030h-158l-14 180q-43 -94 -132.5 -148.5t-181.5 -54.5z" glyph-name="mu" unicode="μ"/><glyph d="M725 0h-201l-403 1030h190l314 -850l313 850h190z" glyph-name="nu" unicode="ν"/><glyph d="M461 1300h-215v156h760v-156q-63 0 -98.5 -1t-102 -7t-106.5 -21.5t-85 -41t-66.5 -69.5t-21.5 -103q0 -57 17.5 -101.5t55.5 -69t72 -40t94 -21.5t92 -7t95 -1v-147h-39q-72 0 -117.5 -3t-109 -17.5t-99.5 -41t-62.5 -79t-26.5 -126.5q0 -123 82 -195.5t211 -72.5 q125 0 199.5 -24.5t113.5 -90t51 -148.5t12 -230h-178q0 102 -7 163.5t-16.5 98.5t-39 52t-54 18t-81.5 3q-197 0 -334.5 115t-137.5 305q0 236 216 351q-182 104 -183 315q0 155 109 237z" glyph-name="xi" unicode="ξ"/><glyph d="M930 516q0 164 -79 274.5t-230 110.5q-150 0 -226 -110.5t-76 -274.5t77 -274.5t228.5 -110.5t228.5 110.5t77 274.5zM624.5 -20q-231.5 0 -356.5 154.5t-125 381.5t123 381t354.5 154t358.5 -154t127 -381t-125 -381.5t-356.5 -154.5z" glyph-name="omicron" unicode="ο"/><glyph d="M1106 -20h-86q-143 0 -204.5 63t-61.5 184v670h-281v-897h-174v897h-178v133h985v-133h-178v-670q0 -43 20.5 -77.5t67.5 -34.5h90v-135z" glyph-name="pi" unicode="π"/><glyph d="M661.5 903q-145.5 0 -219 -112.5t-73.5 -278.5q0 -162 73.5 -272.5t219 -110.5t220 110.5t74.5 272.5q0 168 -74.5 279.5t-220 111.5zM369 102v-460h-174v870q0 225 125.5 383t357.5 158q219 0 338 -158t119 -383q0 -221 -118 -378t-339 -157q-188 0 -309 125z" glyph-name="rho" unicode="ρ"/><glyph d="M633 -23q-213 0 -341 157t-128 384q0 225 128 380t341 155q195 0 317.5 -117t130.5 -277h-172q-25 115 -94.5 179.5t-183.5 64.5q-145 0 -217 -103.5t-72 -281.5q0 -176 72.5 -282.5t218.5 -106.5q104 0 174 -7t123 -29.5t81.5 -53.5t46 -91.5t22.5 -129t5 -176.5h-178 v106.5t-5 78.5t-11 60.5t-21.5 40t-32 27.5t-50 13t-66.5 8t-88 1z" glyph-name="sigma1" unicode="ς"/><glyph d="M930 516q0 164 -79 274.5t-230 110.5q-150 0 -226 -110.5t-76 -274.5t77 -274.5t228.5 -110.5t228.5 110.5t77 274.5zM1180 905h-209q135 -152 135 -389q0 -227 -125 -381.5t-356.5 -154.5t-356.5 154.5t-125 381.5t123 381t355 154h559v-146z" glyph-name="sigma" unicode="σ"/><glyph d="M713 0h-174v889h-396v141h963v-141h-393v-889z" glyph-name="tau" unicode="τ"/><glyph d="M199 403v627h174v-627q0 -121 70.5 -197.5t181.5 -76.5q109 0 180.5 77t71.5 197v627h172v-627q0 -227 -116 -326.5t-308.5 -99.5t-309 99.5t-116.5 326.5z" glyph-name="upsilon" unicode="υ"/><glyph d="M537 1053h88q258 0 397 -150.5t139 -386.5q0 -215 -115.5 -361.5t-334.5 -170.5v-342h-174v342q-219 25 -335 171t-116 361q0 182 86 318.5t250 189.5v-190q-156 -86 -156 -318q0 -143 65.5 -239.5t205.5 -118.5v895zM711 872v-714q139 23 205.5 119t66.5 239 q0 141 -66.5 237t-205.5 119z" glyph-name="phi" unicode="φ"/><glyph d="M625 649l282 381h221l-378 -491l380 -539h-223l-282 414l-281 -414h-223l381 539l-379 491h221z" glyph-name="chi" unicode="χ"/><glyph d="M143 0v1030h172v-889h222v889h174v-889h221v889h174v-1030h-395v-358h-174v358h-394z" glyph-name="psi" unicode="ψ"/><glyph d="M143 0v1030h172v-889h222v666h174v-666h221v889h174v-1030h-963z" glyph-name="omega" unicode="ω"/><glyph d="M1147 0h-963v141h396v748h-306v141h480v-889h393v-141zM541 1233h-201v201h201v-201zM909 1233h-200v201h200v-201z" glyph-name="iotadieresis" unicode="ϊ"/><glyph d="M199 403v627h174v-627q0 -121 70.5 -197.5t181.5 -76.5q109 0 180.5 77t71.5 197v627h172v-627q0 -227 -116 -326.5t-308.5 -99.5t-309 99.5t-116.5 326.5zM340 1233v201h201v-201h-201zM709 1233v201h200v-201h-200z" glyph-name="upsilondieresis" unicode="ϋ"/><glyph d="M930 516q0 164 -79 274.5t-230 110.5q-150 0 -226 -110.5t-76 -274.5t77 -274.5t228.5 -110.5t228.5 110.5t77 274.5zM624.5 -20q-231.5 0 -356.5 154.5t-125 381.5t123 381t354.5 154t358.5 -154t127 -381t-125 -381.5t-356.5 -154.5zM680 1106h-113l-32 348h180z" glyph-name="omicrontonos" unicode="ό"/><glyph d="M199 403v627h174v-627q0 -121 70.5 -197.5t181.5 -76.5q109 0 180.5 77t71.5 197v627h172v-627q0 -227 -116 -326.5t-308.5 -99.5t-309 99.5t-116.5 326.5zM567 1106l-32 348h180l-35 -348h-113z" glyph-name="upsilontonos" unicode="ύ"/><glyph d="M143 0v1030h172v-889h222v666h174v-666h221v889h174v-1030h-963zM567 1106l-32 348h180l-35 -348h-113z" glyph-name="omegatonos" unicode="ώ"/><glyph d="M1096 168v-168h-942v1434h942v-158h-762v-447h627v-157h-627v-504h762zM727 1591l-55 -82l-436 238l88 139z" glyph-name="uni0400" unicode="Ѐ"/><glyph d="M1096 168v-168h-942v1434h942v-158h-762v-447h627v-157h-627v-504h762zM340 1636v201h201v-201h-201zM709 1636v201h200v-201h-200z" glyph-name="afii10023" unicode="Ё"/><glyph d="M958 1434v-156h-380v-438h137q215 0 343 -104.5t128 -321.5q0 -209 -129 -311.5t-342 -102.5v156q131 0 211 74.5t80 189.5t-80 188.5t-211 73.5h-137v-682h-181v1278h-336v156h897z" glyph-name="afii10051" unicode="Ђ"/><glyph d="M438 0h-178v1434h895v-158h-717v-1276zM1075 1792l-436 -213l-55 80l403 291z" glyph-name="afii10052" unicode="Ѓ"/><glyph d="M1012 449h184q-27 -205 -154 -338.5t-360 -133.5q-127 0 -224.5 43t-157.5 113t-99 168t-53.5 199.5t-14.5 216t14.5 216t53.5 200t99 168t157.5 112.5t224.5 43q233 0 360 -133t154 -338h-182q-63 303 -334 303q-328 0 -363 -448h578v-156h-584q0 -96 15.5 -180 t52.5 -170t114.5 -137.5t188.5 -51.5q269 1 330 304z" glyph-name="afii10053" unicode="Є"/><glyph d="M625 -20q-225 0 -382 122.5t-157 346.5h190q0 -131 104.5 -217.5t244.5 -86.5q346 0 346 258q0 53 -21.5 92.5t-48.5 62t-83 40.5t-93 24.5t-111 18.5h-6q-66 10 -99.5 16.5t-93 20.5t-92 30.5t-74.5 46t-63.5 65.5t-38 90.5t-16.5 119.5q0 190 148.5 307t345.5 117 q215 0 365.5 -128t150.5 -341h-191q0 133 -95 220t-230 87q-131 0 -222.5 -67.5t-91.5 -194.5q0 -55 24.5 -93t81 -61.5t101.5 -35t133 -25.5q98 -16 153.5 -28.5t133.5 -43t120 -69.5t72.5 -108.5t30.5 -162.5q0 -203 -159.5 -313t-376.5 -110z" glyph-name="afii10054" unicode="Ѕ"/><glyph d="M209 1434h829v-166h-325v-1102h325v-166h-829v166h326v1102h-326v166z" glyph-name="afii10055" unicode="І"/><glyph d="M209 1434h829v-166h-325v-1102h325v-166h-829v166h326v1102h-326v166zM541 1636h-201v201h201v-201zM909 1636h-200v201h200v-201z" glyph-name="afii10056" unicode="Ї"/><glyph d="M117 449h178q0 -139 68.5 -221.5t199.5 -82.5t199.5 82t68.5 222v985h181v-985q0 -203 -125 -336t-323.5 -133t-322.5 133t-124 336z" glyph-name="afii10057" unicode="Ј"/><glyph d="M389 1276v-827q0 -53 -1 -84t-7 -87.5t-19.5 -91t-40 -79t-63.5 -70t-95.5 -43t-131.5 -17.5v158q43 0 74.5 9.5t51 33t31 45t15.5 66.5t5 72.5t1 87.5v985h539v-594q213 0 341 -104.5t128 -321.5q0 -414 -467 -414h-183v1276h-178zM748 684v-526q131 0 210.5 73.5 t79.5 188.5t-79.5 189.5t-210.5 74.5z" glyph-name="afii10058" unicode="Љ"/><glyph d="M711 1434v-594q215 0 343 -104.5t128 -321.5q0 -209 -128 -311.5t-343 -102.5h-179v684h-245v-684h-181v1434h181v-594h245v594h179zM711 684v-526q133 0 213 73.5t80 188.5t-80 189.5t-213 74.5z" glyph-name="afii10059" unicode="Њ"/><glyph d="M965 1434v-156h-379v-438h88q203 0 292 -99.5t89 -326.5v-414h-178v414q0 139 -43 204.5t-160 65.5h-88v-684h-180v1278h-336v156h895z" glyph-name="afii10060" unicode="Ћ"/><glyph d="M156 1434h178v-639h180l459 639h201l-523 -717l523 -717h-201l-459 639h-180v-639h-178v1434zM973 1792l-436 -213l-56 80l404 291z" glyph-name="afii10061" unicode="Ќ"/><glyph d="M1118 1434v-1434h-180v1188l-571 -1188h-236v1434h180v-1188l572 1188h235zM748 1591l-56 -82l-436 238l88 139z" glyph-name="uni040D" unicode="Ѝ"/><glyph d="M160 0v172q78 -41 170 -41q121 0 166 115l67 168l-440 1020h203l329 -830l326 830h201l-500 -1188q-57 -133 -130 -199.5t-212 -66.5q-94 0 -180 20zM825 1858h136q0 -150 -90.5 -238t-246 -88t-245.5 88t-90 238h135q0 -88 53 -139.5t147.5 -51.5t147.5 51.5t53 139.5z " glyph-name="afii10062" unicode="Ў"/><glyph d="M176 0v1434h178v-1276h539v1276h178v-1434h-358v-358h-178v358h-359z" glyph-name="afii10145" unicode="Џ"/><glyph d="M41 0l471 1434h203l491 -1434h-178l-147 449h-519l-141 -449h-180zM614 1255l-202 -649h415z" glyph-name="afii10017" unicode="А"/><glyph d="M340 840h358q213 0 342 -103.5t129 -316.5t-129 -316.5t-342 -103.5h-536v1434h895v-156h-717v-438zM340 158h358q133 0 212 73.5t79 188.5q0 117 -79 190.5t-212 73.5h-358v-526z" glyph-name="afii10018" unicode="Б"/><glyph d="M870 752q102 -37 163 -135.5t61 -213.5q0 -193 -127 -298t-322 -105h-491v1434h491q178 0 302 -102.5t124 -278.5q0 -102 -52.5 -185t-148.5 -116zM915 420q0 115 -80.5 183.5t-189.5 68.5h-313v-504h313q117 0 193.5 58.5t76.5 193.5zM881 1052.5q0 112.5 -64.5 169 t-171.5 56.5h-313v-449h313q106 0 171 55.5t65 168z" glyph-name="afii10019" unicode="В"/><glyph d="M438 0h-178v1434h895v-158h-717v-1276z" glyph-name="afii10020" unicode="Г"/><glyph d="M1006 1434v-1276h133v-516h-178v358h-670v-358h-180v516h180l98 1276h617zM477 158h348v1118h-262z" glyph-name="afii10021" unicode="Д"/><glyph d="M1096 168v-168h-942v1434h942v-158h-762v-447h627v-157h-627v-504h762z" glyph-name="afii10022" unicode="Е"/><glyph d="M287 0h-201l227 717l-227 717h201l180 -639h68v639h178v-639h63l185 639h200l-227 -717l227 -717h-200l-185 639h-63v-639h-178v639h-68z" glyph-name="afii10024" unicode="Ж"/><glyph d="M156 403h180q6 -123 76.5 -194.5t191.5 -71.5q123 0 202 72t79 192q0 125 -84 193t-215 68h-60v155h60q125 0 195.5 64.5t70.5 179.5q0 109 -62.5 170t-183.5 61q-117 0 -188.5 -62.5t-71.5 -199.5h-178q0 178 120 301t298 123q201 0 322.5 -111.5t121.5 -275.5 q0 -115 -60.5 -202t-152.5 -126q113 -35 179.5 -132t66.5 -204q0 -199 -118 -311t-318 -112q-207 0 -339 116.5t-132 306.5z" glyph-name="afii10025" unicode="З"/><glyph d="M1118 1434v-1434h-180v1188l-571 -1188h-236v1434h180v-1188l572 1188h235z" glyph-name="afii10026" unicode="И"/><glyph d="M1118 1434v-1434h-180v1188l-571 -1188h-236v1434h180v-1188l572 1188h235zM825 1858h136q0 -150 -90.5 -238t-246 -88t-245.5 88t-90 238h135q0 -88 53 -139.5t147.5 -51.5t147.5 51.5t53 139.5z" glyph-name="afii10027" unicode="Й"/><glyph d="M156 1434h178v-639h180l459 639h201l-523 -717l523 -717h-201l-459 639h-180v-639h-178v1434z" glyph-name="afii10028" unicode="К"/><glyph d="M403 1276v-807q0 -53 -1 -84t-7 -87t-19.5 -91t-40 -79t-63 -69.5t-95 -43t-132.5 -17.5v158q53 0 88 17t53.5 38.5t27.5 71t10 83t1 103.5v965h895v-1434h-178v1276h-539z" glyph-name="afii10029" unicode="Л"/><glyph d="M289 1120v-1120h-180v1434h235l281 -830l280 830h236v-1434h-180v1120l-246 -671h-180z" glyph-name="afii10030" unicode="М"/><glyph d="M131 0v1434h180v-605h627v605h180v-1434h-180v672h-627v-672h-180z" glyph-name="afii10031" unicode="Н"/><glyph d="M84 716.5q0 114.5 14.5 216t52 199t97 167t156 112.5t219.5 43q152 0 261 -62.5t167.5 -172t84 -233.5t25.5 -269.5t-25.5 -269t-84 -233.5t-168 -172t-260.5 -62q-123 0 -219.5 43t-156 112.5t-97 166.5t-52 198.5t-14.5 216zM622.5 1288q-358.5 0 -358.5 -571.5 t358.5 -571.5t358.5 571.5t-358.5 571.5z" glyph-name="afii10032" unicode="О"/><glyph d="M354 0h-178v1434h895v-1434h-178v1276h-539v-1276z" glyph-name="afii10033" unicode="П"/><glyph d="M375 1276v-524h356q133 0 213 73.5t80 188t-80 188.5t-213 74h-356zM375 594v-594h-180v1434h536q215 0 343 -103.5t128 -316.5t-128 -316.5t-343 -103.5h-356z" glyph-name="afii10034" unicode="Р"/><glyph d="M973 449h184q-29 -207 -157 -338t-369 -131q-123 0 -219.5 43t-155.5 112.5t-97 166.5t-52.5 198.5t-14.5 216t14.5 216t52.5 199t97 167t155.5 112.5t219.5 43q242 0 369.5 -131t156.5 -338h-184q-61 303 -342 303q-358 0 -358.5 -571.5t358.5 -571.5q281 1 342 304z " glyph-name="afii10035" unicode="С"/><glyph d="M1206 1434v-156h-491v-1278h-180v1278h-492v156h1163z" glyph-name="afii10036" unicode="Т"/><glyph d="M160 0v172q78 -41 170 -41q121 0 166 115l67 168l-440 1020h203l329 -830l326 830h201l-500 -1188q-57 -133 -130 -199.5t-212 -66.5q-94 0 -180 20z" glyph-name="afii10037" unicode="У"/><glyph d="M713 1434v-195q223 0 361 -147.5t138 -375t-138 -374.5t-359 -147v-195h-180v195q-223 0 -361.5 147t-138.5 374.5t138 375t359 147.5v195h181zM532 367v700q-133 0 -225 -102.5t-92 -248t92 -247.5t225 -102zM713 1067v-700q133 0 226 102t93 247.5t-93 248t-226 102.5z " glyph-name="afii10038" unicode="Ф"/><glyph d="M973 0l-348 571l-349 -571h-200l448 717l-448 717h200l349 -560l348 560h201l-449 -717l449 -717h-201z" glyph-name="afii10039" unicode="Х"/><glyph d="M109 0v1434h180v-1276h536v1276h181v-1276h133v-504h-178v346h-852z" glyph-name="afii10040" unicode="Ц"/><glyph d="M1028 1434v-1457h-172v562q-45 -76 -132 -117t-192 -41q-166 0 -260 100.5t-94 280.5v672h176v-627q0 -125 57.5 -196.5t172.5 -71.5q80 0 137 35.5t85 96t39 120t11 124.5v519h172z" glyph-name="afii10041" unicode="Ч"/><glyph d="M131 0v1434h178v-1276h226v1276h178v-1276h225v1276h178v-1434h-985z" glyph-name="afii10042" unicode="Ш"/><glyph d="M1161 158v-516h-178v358h-897v1434h180v-1276h223v1276h179v-1276h225v1276h178v-1276h90z" glyph-name="afii10043" unicode="Щ"/><glyph d="M535 840h155q215 0 343 -104.5t128 -321.5q0 -209 -128 -311.5t-343 -102.5h-336v1278h-268v156h449v-594zM535 158h155q133 0 213 73.5t80 188.5t-80 189.5t-213 74.5h-155v-526z" glyph-name="afii10044" unicode="Ъ"/><glyph d="M1042 0v1434h181v-1434h-181zM266 840h156q215 0 343 -103.5t128 -316.5t-128 -316.5t-343 -103.5h-336v1434h180v-594zM266 158h156q133 0 212 73.5t79 188.5q0 117 -79 190.5t-212 73.5h-156v-526z" glyph-name="afii10045" unicode="Ы"/><glyph d="M731 682h-356v-524h356q133 0 213 73.5t80 188.5t-80 188.5t-213 73.5zM197 1434h178v-594h356q215 0 343 -103.5t128 -316.5t-128 -316.5t-343 -103.5h-534v1434z" glyph-name="afii10046" unicode="Ь"/><glyph d="M92 449h184q61 -303 342 -304q106 0 182.5 51.5t112 137.5t50 170t14.5 180h-584v156h578q-35 449 -353 448q-283 0 -342 -303h-184q27 207 156 339t370 132q152 0 261.5 -63.5t167 -173t83 -233.5t25.5 -269.5t-25.5 -269t-83 -233.5t-167 -173.5t-261.5 -63.5 q-242 0 -370.5 133.5t-155.5 338.5z" glyph-name="afii10047" unicode="Э"/><glyph d="M803 1456q117 0 197.5 -54t124.5 -158.5t62.5 -231.5t18.5 -295t-18.5 -295t-62.5 -231.5t-124.5 -159t-197.5 -54.5q-403 0 -404 707h-178v-684h-180v1434h180v-594h182q14 293 105.5 454.5t294.5 161.5zM803 158q225 0 225 559q0 115 -8 202t-29.5 175t-70 136t-118 48 t-116.5 -48t-68.5 -136t-29.5 -175.5t-8 -201.5q0 -559 223 -559z" glyph-name="afii10048" unicode="Ю"/><glyph d="M270 0h-204l323 608q-324 70 -323 412q0 209 128 311.5t343 102.5h536v-1434h-178v596h-309zM537 752h358v526h-358q-133 0 -213 -71.5t-80 -186.5q0 -117 80 -192.5t213 -75.5z" glyph-name="afii10049" unicode="Я"/><glyph d="M1014 633v-633h-156v158q-45 -72 -145.5 -126.5t-202.5 -54.5q-170 0 -264 88.5t-94 202.5q0 76 25.5 135.5t61 97.5t100 64.5t115 38.5t134.5 19.5t129 8.5t127 1q0 264 -232 264q-98 0 -165.5 -45t-73.5 -135h-170q0 158 124 247t283 89q176 0 290 -112.5t114 -307.5z M500 135q37 0 74.5 7.5t89 30t89.5 60t64.5 106.5t26.5 159q-92 0 -137 -1t-117 -7.5t-109 -20.5t-76.5 -38.5t-56 -65.5t-16.5 -97q0 -66 45 -99.5t123 -33.5z" glyph-name="afii10065" unicode="а"/><glyph d="M848 1227h-80q-188 0 -295.5 -124t-107.5 -319q35 74 128 121t201 47q190 0 320.5 -139t130.5 -350q0 -213 -135.5 -349.5t-345.5 -136.5q-479 0 -480 744q0 129 32 243.5t95.5 212t173 155t252.5 57.5q45 0 68.5 1t55.5 7t46.5 20.5t14.5 38.5h159q0 -121 -57 -175 t-176 -54zM678 135q135 0 212 94.5t77 235.5t-77 235.5t-212 94.5q-137 0 -215 -94.5t-78 -235.5t78 -235.5t215 -94.5z" glyph-name="afii10066" unicode="б"/><glyph d="M870 541q86 -25 134.5 -96.5t48.5 -163.5q0 -131 -95.5 -205t-238.5 -74h-463v1028h463q133 0 223 -71.5t90 -196.5q0 -176 -162 -221zM719 891h-291v-279h291q68 0 108.5 35t40.5 104.5t-40.5 104.5t-108.5 35zM428 143h291q68 0 114 37t46 117q0 82 -48.5 127 t-111.5 45h-291v-326z" glyph-name="afii10067" unicode="в"/><glyph d="M535 0h-173v1030h717v-141h-544v-889z" glyph-name="afii10068" unicode="г"/><glyph d="M944 1030v-889h90v-499h-174v358h-514v-358h-174v499h88l94 889h590zM432 141h338v748h-258z" glyph-name="afii10069" unicode="д"/><glyph d="M893 307h180q-45 -158 -158.5 -242.5t-289.5 -84.5q-229 0 -350 141t-121 379q0 240 122.5 395.5t352.5 155.5q160 0 267.5 -81t153.5 -205t46 -282v-37h-764q0 -137 87 -226t210 -89q86 0 156.5 47t107.5 129zM334 590h581q0 127 -81.5 219t-208.5 92q-133 0 -210 -100 t-81 -211z" glyph-name="afii10070" unicode="е"/><glyph d="M266 0h-200l227 516l-227 514h200l176 -444h95v444h174v-444h92l178 444h201l-228 -516l228 -514h-201l-178 444h-92v-444h-174v444h-95z" glyph-name="afii10072" unicode="ж"/><glyph d="M831 537q152 -74 152 -238q0 -145 -107.5 -233.5t-271.5 -88.5q-166 0 -272.5 90.5t-106.5 245.5h176q0 -70 56.5 -129t148.5 -59q90 0 144.5 55.5t54.5 122.5q0 63 -51.5 113.5t-171.5 50.5h-21v143h21q109 0 162 39t53 102.5t-48.5 111.5t-140.5 48q-100 0 -149 -56 t-49 -138h-177q0 156 101.5 246t271.5 90q164 0 265.5 -82t101.5 -215q-1 -149 -142 -219z" glyph-name="afii10073" unicode="з"/><glyph d="M418 1030v-717l401 717h187v-1030h-175v741l-415 -741h-172v1030h174z" glyph-name="afii10074" unicode="и"/><glyph d="M418 1030v-717l401 717h187v-1030h-175v741l-415 -741h-172v1030h174zM825 1454h136q0 -150 -90.5 -238t-246 -88t-245.5 88.5t-90 237.5h135q0 -88 53 -139t147.5 -51t147.5 51t53 139z" glyph-name="afii10075" unicode="й"/><glyph d="M420 444v-444h-174v1030h174v-444h178l285 444h200l-329 -514l329 -516h-200l-285 444h-178z" glyph-name="afii10076" unicode="к"/><glyph d="M387 889v-531q0 -207 -55.5 -282.5t-247.5 -75.5h-49v141h49q39 0 64.5 11.5t39 27t19.5 49t7 57t1 72.5v672h819v-1030h-174v889h-473z" glyph-name="afii10077" unicode="л"/><glyph d="M625 449l221 581h188v-1030h-176v643l-164 -418h-141l-166 418v-643h-172v1030h186z" glyph-name="afii10078" unicode="м"/><glyph d="M395 0h-174v1030h174v-444h457v444h174v-1030h-174v444h-457v-444z" glyph-name="afii10079" unicode="н"/><glyph d="M930 516q0 164 -79 274.5t-230 110.5q-150 0 -226 -110.5t-76 -274.5t77 -274.5t228.5 -110.5t228.5 110.5t77 274.5zM624.5 -20q-231.5 0 -356.5 154.5t-125 381.5t123 381t354.5 154t358.5 -154t127 -381t-125 -381.5t-356.5 -154.5z" glyph-name="afii10080" unicode="о"/><glyph d="M389 0h-174v1030h819v-1030h-174v889h-471v-889z" glyph-name="afii10081" unicode="п"/><glyph d="M369 -424h-174v1454h159l15 -129q43 70 131 110t178 40q221 0 340 -158t119 -381q0 -221 -119 -376.5t-340 -155.5q-92 0 -178 45t-131 110v-559zM678 131q137 0 207.5 109.5t70.5 271.5q0 166 -69.5 277.5t-206.5 111.5q-74 0 -131 -25.5t-91 -65.5t-54.5 -94 t-27.5 -102.5t-7 -101.5q0 -66 13 -126t44 -120.5t95.5 -97.5t156.5 -37z" glyph-name="afii10082" unicode="р"/><glyph d="M907 377h172q-10 -162 -133 -279.5t-315 -117.5q-213 0 -342 156.5t-129 381.5q0 223 129 378t342 155q193 0 315.5 -116t132.5 -276h-172q-49 242 -280 242q-145 0 -216 -102.5t-71 -280.5q0 -176 72.5 -281.5t218.5 -105.5q113 0 182 65.5t94 180.5z" glyph-name="afii10083" unicode="с"/><glyph d="M713 0h-174v889h-396v141h963v-141h-393v-889z" glyph-name="afii10084" unicode="т"/><glyph d="M160 -424v172q78 -41 180 -41q111 0 156 115l67 168l-448 1040h202l338 -850l334 850h201l-508 -1208q-57 -133 -130 -199.5t-212 -66.5q-94 0 -180 20z" glyph-name="afii10085" unicode="у"/><glyph d="M879 1051q139 0 223 -165t84 -372q0 -131 -34 -250t-106.5 -201.5t-168.5 -82.5q-98 0 -166 73v-411h-174v411q-63 -74 -166 -73q-96 0 -169 82.5t-107 201.5t-34 250q0 207 84 372t224 165q98 0 168 -74v479h174v-479q68 74 168 74zM537 205v618q-47 57 -115 58 q-86 0 -133 -102.5t-47 -262.5t47 -262t133 -102q68 0 115 53zM825 152q88 0 135.5 103t47.5 261t-47.5 261.5t-135.5 103.5q-70 0 -114 -58v-618q48 -53 114 -53z" glyph-name="afii10086" unicode="ф"/><glyph d="M625 649l282 381h221l-378 -491l380 -539h-223l-282 414l-281 -414h-223l381 539l-379 491h221z" glyph-name="afii10087" unicode="х"/><glyph d="M215 0v1030h172v-889h473v889h174v-889h123v-499h-174v358h-768z" glyph-name="afii10088" unicode="ц"/><glyph d="M973 1030v-1030h-174v397q-35 -57 -103.5 -94t-144.5 -37q-154 0 -255 81t-101 208v475h174v-403q0 -90 53 -144.5t147 -54.5q119 0 174.5 76t55.5 168v358h174z" glyph-name="afii10089" unicode="ч"/><glyph d="M143 0v1030h172v-889h222v889h174v-889h221v889h174v-1030h-963z" glyph-name="afii10090" unicode="ш"/><glyph d="M143 0v1030h174v-889h222v889h172v-889h221v889h174v-889h123v-499h-174v358h-912z" glyph-name="afii10091" unicode="щ"/><glyph d="M516 680h264q174 0 277.5 -84t103.5 -256t-103.5 -256t-277.5 -84h-438v889h-256v141h432zM516 141h264q94 0 150.5 55.5t56.5 143.5t-56.5 143.5t-150.5 55.5h-264v-398z" glyph-name="afii10092" unicode="ъ"/><glyph d="M270 680h265q174 0 277 -84t103 -256t-103 -256t-277 -84h-439v1030h174v-350zM270 141h265q94 0 150 55.5t56 143.5t-56 143.5t-150 55.5h-265v-398zM1061 0v1030h174v-1030h-174z" glyph-name="afii10093" unicode="ы"/><glyph d="M449 680h266q174 0 277.5 -84t103.5 -256t-103.5 -256t-277.5 -84h-439v1030h177zM449 141h266q94 0 150.5 55.5t56.5 143.5t-56.5 143.5t-150.5 55.5h-266v-398z" glyph-name="afii10094" unicode="ь"/><glyph d="M143 379h172q25 -117 94.5 -183.5t182.5 -66.5q133 0 205.5 90t83.5 244h-402v141h400q-16 139 -87 219t-196 80q-115 0 -185.5 -64.5t-95.5 -179.5h-172q10 160 133 277t316 117q213 0 342 -155t129 -380q0 -227 -129 -384t-342 -157q-193 0 -316 119t-133 283z" glyph-name="afii10095" unicode="э"/><glyph d="M844 1053q188 0 273 -148.5t85 -388.5t-85 -389.5t-273 -149.5q-174 0 -259 128t-98 339h-186v-444h-174v1030h174v-444h186q12 213 97.5 340t259.5 127zM844 129q182 0 182 387t-182 387t-182 -387t182 -387z" glyph-name="afii10096" unicode="ю"/><glyph d="M504 1030h430v-1030h-172v412h-182l-220 -412h-194l231 438q-231 49 -231 291q0 154 92 227.5t246 73.5zM504 555h258v334h-258q-76 0 -125 -48t-49 -120t49 -119t125 -47z" glyph-name="afii10097" unicode="я"/><glyph d="M893 307h180q-45 -158 -158.5 -242.5t-289.5 -84.5q-229 0 -350 141t-121 379q0 240 122.5 395.5t352.5 155.5q160 0 267.5 -81t153.5 -205t46 -282v-37h-764q0 -137 87 -226t210 -89q86 0 156.5 47t107.5 129zM334 590h581q0 127 -81.5 219t-208.5 92q-133 0 -210 -100 t-81 -211zM262 1483l404 -295l-56 -82l-436 237z" glyph-name="uni0450" unicode="ѐ"/><glyph d="M893 307h180q-45 -158 -158.5 -242.5t-289.5 -84.5q-229 0 -350 141t-121 379q0 240 122.5 395.5t352.5 155.5q160 0 267.5 -81t153.5 -205t46 -282v-37h-764q0 -137 87 -226t210 -89q86 0 156.5 47t107.5 129zM334 590h581q0 127 -81.5 219t-208.5 92q-133 0 -210 -100 t-81 -211zM541 1233h-203v201h203v-201zM909 1233h-200v201h200v-201z" glyph-name="afii10071" unicode="ё"/><glyph d="M977 -23h-2v650q0 125 -57.5 197.5t-169.5 72.5q-80 0 -137.5 -36t-85 -97.5t-39 -120.5t-11.5 -125v-518h-174v1165h-182v146h182v145h174v-145h205v-146h-205v-268q43 74 134 115t196 41q162 0 254 -101.5t92 -279.5v-695q0 -219 -111.5 -322.5t-279.5 -103.5 q-88 0 -178 23v174q82 -45 184 -45q100 0 155.5 70.5t55.5 203.5z" glyph-name="afii10099" unicode="ђ"/><glyph d="M514 0h-172v1030h717v-141h-545v-889zM1055 1343l-437 -237l-55 82l404 295z" glyph-name="afii10100" unicode="ѓ"/><glyph d="M952 379h172q-10 -164 -133 -283t-315 -119q-213 0 -342 157t-129 384q0 225 129 380t342 155q193 0 315.5 -117t132.5 -277h-172q-25 115 -95.5 179.5t-184.5 64.5q-125 0 -195.5 -80t-87.5 -219h399v-141h-401q12 -154 84 -244t205 -90q113 0 182 66.5t94 183.5z" glyph-name="afii10101" unicode="є"/><glyph d="M631 895q-92 0 -161 -37t-69 -119q0 -39 19.5 -65.5t63.5 -42t79 -22.5t105 -17q55 -8 81.5 -13.5t78 -17.5t78 -24.5t62.5 -35t54 -50t31.5 -68.5t13.5 -92q0 -106 -69.5 -180t-164 -102.5t-202.5 -28.5q-172 0 -310.5 93t-138.5 263h174q0 -109 79 -157t196 -48 q262 0 262 160q0 41 -20.5 70.5t-67.5 48t-85 26.5t-110 21q-74 12 -111.5 20t-98 29.5t-92.5 48.5t-56.5 74t-24.5 110q0 147 120 229.5t286 82.5q162 0 281.5 -88.5t119.5 -245.5h-176q0 80 -71.5 129t-155.5 49z" glyph-name="afii10102" unicode="ѕ"/><glyph d="M1147 0h-963v141h396v746h-306v143h478v-889h395v-141zM549 1245v209h225v-209h-225z" glyph-name="afii10103" unicode="і"/><glyph d="M1147 0h-963v141h396v748h-306v141h480v-889h393v-141zM541 1233h-203v201h203v-201zM909 1233h-200v201h200v-201z" glyph-name="afii10104" unicode="ї"/><glyph d="M346 1030h522v-1053q0 -219 -109.5 -320t-279.5 -101q-96 0 -178 20v176q82 -45 178 -45q104 0 160.5 68.5t56.5 201.5v910h-350v143zM664 1245v209h225v-209h-225z" glyph-name="afii10105" unicode="ј"/><glyph d="M741 680h97q174 0 277.5 -84t103.5 -256t-103.5 -256t-277.5 -84h-271v889h-184v-531q0 -211 -57.5 -296t-245.5 -85h-49v142h49q37 0 62.5 14t39 31.5t19.5 55.5t7 62.5t1 75.5v672h532v-350zM741 141h97q94 0 150 55.5t56 143.5t-56 143.5t-150 55.5h-97v-398z" glyph-name="afii10106" unicode="љ"/><glyph d="M686 680h94q174 0 277.5 -84t103.5 -256t-103.5 -256t-277.5 -84h-268v539h-252v-539h-174v1030h174v-350h252v350h174v-350zM686 141h94q94 0 150.5 55.5t56.5 143.5t-56.5 143.5t-150.5 55.5h-94v-398z" glyph-name="afii10107" unicode="њ"/><glyph d="M303 1165h-184v146h184v143h174v-143h203v-146h-203v-268q43 74 133 114t195 40q164 0 257 -100.5t93 -278.5v-672h-178v627q0 125 -56.5 196.5t-170.5 71.5q-106 0 -171 -65.5t-83.5 -142.5t-18.5 -169v-518h-174v1165z" glyph-name="afii10108" unicode="ћ"/><glyph d="M420 444v-444h-174v1030h174v-444h178l285 444h200l-329 -514l329 -516h-200l-285 444h-178zM618 1106l-55 82l404 295l88 -140z" glyph-name="afii10109" unicode="ќ"/><glyph d="M418 1030v-717l401 717h187v-1030h-175v741l-415 -741h-172v1030h174zM666 1188l-56 -82l-436 237l88 140z" glyph-name="uni045D" unicode="ѝ"/><glyph d="M160 -424v172q78 -41 180 -41q111 0 156 115l67 168l-448 1040h202l338 -850l334 850h201l-508 -1208q-57 -133 -130 -199.5t-212 -66.5q-94 0 -180 20zM825 1454h136q0 -150 -90.5 -238t-246 -88t-245.5 88.5t-90 237.5h135q0 -88 53 -139t147.5 -51t147.5 51t53 139z " glyph-name="afii10110" unicode="ў"/><glyph d="M215 0v1030h172v-889h473v889h174v-1030h-323v-358h-174v358h-322z" glyph-name="afii10193" unicode="џ"/><glyph d="M731 682h-356v-524h356q133 0 213 73.5t80 188.5t-80 188.5t-213 73.5zM0 1030v146h195v258h180v-258h186v-146h-186v-190h356q215 0 343 -103.5t128 -316.5t-128 -316.5t-343 -103.5h-536v1030h-195z" glyph-name="afii10146" unicode="Ѣ"/><glyph d="M731 0h-434v958h-195v146h195v350h178v-350h189v-146h-189v-262h256q231 0 351 -71.5t120 -276.5t-120 -276.5t-351 -71.5zM731 539h-256v-381h256q145 0 219 42t74 148.5t-74 148.5t-219 42z" glyph-name="afii10194" unicode="ѣ"/><glyph d="M625 1456q152 0 261 -63.5t166.5 -173t83 -233.5t25.5 -269.5t-25.5 -269t-83 -233.5t-167 -173.5t-260.5 -63.5q-154 0 -263.5 63.5t-167 173.5t-83 233.5t-25.5 269t25.5 269.5t83 233.5t167 173t263.5 63.5zM625 1288q-319 0 -355 -454q63 33 151.5 32.5t218.5 -66 t185 -65.5q74 0 156 64q-28 489 -356 489zM625 145q317 0 352 455q-63 -33 -151.5 -33t-217.5 65.5t-186 65.5q-84 0 -156 -55q23 -498 359 -498z" glyph-name="afii10147" unicode="Ѳ"/><glyph d="M624.5 1053q231.5 0 356.5 -155t125 -382t-125 -383t-356.5 -156t-357.5 156t-126 383t126 382t357.5 155zM625 129q115 0 186.5 67.5t99.5 178.5q-35 -8 -86 -8q-88 0 -218 64.5t-185 64.5q-59 0 -103 -21q10 -150 87.5 -248t218.5 -98zM825 535q51 0 103 26 q-12 147 -90 244.5t-217 97.5q-115 0 -187 -67.5t-100 -180.5q47 10 88 11q88 0 218 -65.5t185 -65.5z" glyph-name="afii10195" unicode="ѳ"/><glyph d="M657 0h-231l-426 1434h199l340 -1231l282 977q39 137 133.5 205.5t223.5 68.5q35 0 71 -6v-164q-37 12 -71 12q-80 0 -123 -46t-70 -128z" glyph-name="afii10148" unicode="Ѵ"/><glyph d="M662 0h-220l-395 1030h191l305 -850l229 596q104 274 358 275q37 0 70 -7v-163q-33 12 -70 12q-80 0 -120.5 -43t-73.5 -129z" glyph-name="afii10196" unicode="ѵ"/><glyph d="M934 1434v358h178v-516h-717v-1276h-178v1434h717z" glyph-name="afii10050" unicode="Ґ"/><glyph d="M459 0h-172v1030h542v404h175v-545h-545v-889z" glyph-name="afii10098" unicode="ґ"/><glyph d="M559 -16q-180 18 -291.5 131.5t-111.5 287.5h180q6 -123 76.5 -194.5t191.5 -71.5q123 0 202 72t79 192q0 125 -84 193t-215 68h-60v155h60q125 0 195.5 64.5t70.5 179.5q0 109 -62.5 170t-183.5 61q-117 0 -188.5 -62.5t-71.5 -199.5h-178q0 178 120 301t298 123 q201 0 322.5 -111.5t121.5 -275.5q0 -115 -60.5 -202t-152.5 -126q113 -35 179.5 -132t66.5 -204q0 -174 -92 -283.5t-254 -131.5q55 -59 66.5 -133t-18.5 -135.5t-102.5 -103.5t-173.5 -42q-35 0 -71 6v166q35 -14 71 -14q72 0 100.5 44t17.5 100.5t-48 107.5z" glyph-name="uni0498" unicode="Ҙ"/><glyph d="M848 541q78 -18 126 -90t48 -162q0 -119 -72.5 -198t-191.5 -103q57 -59 68.5 -132t-18.5 -135.5t-103.5 -104.5t-174.5 -42q-35 0 -71 6v166q35 -14 71 -14q72 0 100.5 44t17.5 101t-48 107q-127 16 -208 95t-83 210h172q2 -74 53.5 -118t129 -44t132 39t54.5 123 q0 170 -203 170h-45v149h45q86 0 135 43t49 111q0 63 -49 103t-127 40q-68 0 -117 -38t-49 -122h-172q0 143 91.5 226.5t238.5 83.5q164 0 257 -78t93 -215q1 -168 -149 -221z" glyph-name="uni0499" unicode="ҙ"/><glyph d="M756 -10q57 -59 69.5 -133t-17.5 -136.5t-103.5 -104.5t-174.5 -42q-35 0 -71 6v166q35 -14 71 -14q72 0 100.5 43t18.5 99t-47 106q-145 6 -248.5 70.5t-159 174t-79 229t-23.5 263.5q0 115 14.5 216t52.5 198.5t97 167t155.5 112.5t219.5 43q242 0 369.5 -131 t156.5 -338h-184q-61 303 -342 303q-358 0 -358.5 -571.5t358.5 -571.5q281 0 342 304h184q-25 -176 -123 -301t-278 -158z" glyph-name="uni04AA" unicode="Ҫ"/><glyph d="M752 -6q59 -59 72.5 -134t-15.5 -137.5t-102.5 -105.5t-176.5 -43q-35 0 -71 6v166q35 -14 71 -14q72 0 100.5 43t17.5 99t-46 106q-203 12 -322.5 165.5t-119.5 372.5q0 223 129 378t342 155q193 0 315.5 -116t132.5 -276h-172q-49 242 -280 242q-145 0 -216 -102.5 t-71 -280.5q0 -176 72.5 -281.5t218.5 -105.5q113 0 182.5 65.5t93.5 180.5h172q-8 -133 -96 -239.5t-231 -143.5z" glyph-name="uni04AB" unicode="ҫ"/><glyph d="M41 0l471 1434h203l491 -1434h-178l-147 449h-519l-141 -449h-180zM614 1255l-202 -649h415zM825 1858h136q0 -150 -90.5 -238t-246 -88t-245.5 88t-90 238h135q0 -88 53 -139.5t147.5 -51.5t147.5 51.5t53 139.5z" glyph-name="uni04D0" unicode="Ӑ"/><glyph d="M1014 633v-633h-156v158q-45 -72 -145.5 -126.5t-202.5 -54.5q-170 0 -264 88.5t-94 202.5q0 76 25.5 135.5t61 97.5t100 64.5t115 38.5t134.5 19.5t129 8.5t127 1q0 264 -232 264q-98 0 -165.5 -45t-73.5 -135h-170q0 158 124 247t283 89q176 0 290 -112.5t114 -307.5z M500 135q37 0 74.5 7.5t89 30t89.5 60t64.5 106.5t26.5 159q-92 0 -137 -1t-117 -7.5t-109 -20.5t-76.5 -38.5t-56 -65.5t-16.5 -97q0 -66 45 -99.5t123 -33.5zM825 1454h136q0 -150 -90.5 -238t-246 -88t-245.5 88.5t-90 237.5h135q0 -88 53 -139t147.5 -51t147.5 51 t53 139z" glyph-name="uni04D1" unicode="ӑ"/><glyph d="M41 0l471 1434h203l491 -1434h-178l-147 449h-519l-141 -449h-180zM614 1255l-202 -649h415zM541 1636h-201v201h201v-201zM909 1636h-200v201h200v-201z" glyph-name="uni04D2" unicode="Ӓ"/><glyph d="M1014 633v-633h-156v158q-45 -72 -145.5 -126.5t-202.5 -54.5q-170 0 -264 88.5t-94 202.5q0 76 25.5 135.5t61 97.5t100 64.5t115 38.5t134.5 19.5t129 8.5t127 1q0 264 -232 264q-98 0 -165.5 -45t-73.5 -135h-170q0 158 124 247t283 89q176 0 290 -112.5t114 -307.5z M500 135q37 0 74.5 7.5t89 30t89.5 60t64.5 106.5t26.5 159q-92 0 -137 -1t-117 -7.5t-109 -20.5t-76.5 -38.5t-56 -65.5t-16.5 -97q0 -66 45 -99.5t123 -33.5zM541 1233h-201v201h201v-201zM909 1233h-200v201h200v-201z" glyph-name="uni04D3" unicode="ӓ"/><glyph d="M1186 1434v-156h-447v-449h314v-157h-314v-504h447v-168h-627v449h-252l-139 -449h-182l473 1434h727zM356 606h203v645z" glyph-name="uni04D4" unicode="Ӕ"/><glyph d="M698 901v-311h291q0 127 -82 219t-209 92zM520 590v311q-92 0 -161.5 -50t-102.5 -134h-178q47 176 178 255t352 79q285 0 422 -132.5t137 -435.5v-34h-469v-318q88 0 160 48t109 128h178q-57 -197 -185.5 -262t-351.5 -65h-88q-61 0 -98 1t-94.5 7t-92 17t-76.5 33.5 t-64.5 54.5t-39 80t-16.5 112q0 61 16.5 110t39 81t64.5 54.5t76.5 33.5t92 17.5t94.5 7.5t98 1zM219 289q0 -53 20.5 -87t61.5 -48.5t76 -18.5t90 -4h18h35v318h-31q-49 0 -75.5 -1.5t-69.5 -9.5t-65.5 -23.5t-41 -48t-18.5 -77.5z" glyph-name="uni04D5" unicode="ӕ"/><glyph d="M1096 168v-168h-942v1434h942v-158h-762v-447h627v-157h-627v-504h762zM825 1858h136q0 -150 -90.5 -238t-246 -88t-245.5 88t-90 238h135q0 -88 53 -139.5t147.5 -51.5t147.5 51.5t53 139.5z" glyph-name="uni04D6" unicode="Ӗ"/><glyph d="M287 0h-201l227 717l-227 717h201l180 -639h68v639h178v-639h63l185 639h200l-227 -717l227 -717h-200l-185 639h-63v-639h-178v639h-68zM340 1636v201h201v-201h-201zM709 1636v201h200v-201h-200z" glyph-name="uni04DC" unicode="Ӝ"/><glyph d="M266 0h-200l227 516l-227 514h200l176 -444h95v444h174v-444h92l178 444h201l-228 -516l228 -514h-201l-178 444h-92v-444h-174v444h-95zM340 1233v201h201v-201h-201zM709 1233v201h200v-201h-200z" glyph-name="uni04DD" unicode="ӝ"/><glyph d="M156 403h180q6 -123 76.5 -194.5t191.5 -71.5q123 0 202 72t79 192q0 125 -84 193t-215 68h-60v155h60q125 0 195.5 64.5t70.5 179.5q0 109 -62.5 170t-183.5 61q-117 0 -188.5 -62.5t-71.5 -199.5h-178q0 178 120 301t298 123q201 0 322.5 -111.5t121.5 -275.5 q0 -115 -60.5 -202t-152.5 -126q113 -35 179.5 -132t66.5 -204q0 -199 -118 -311t-318 -112q-207 0 -339 116.5t-132 306.5zM541 1636h-201v201h201v-201zM909 1636h-200v201h200v-201z" glyph-name="uni04DE" unicode="Ӟ"/><glyph d="M831 537q152 -74 152 -238q0 -145 -107.5 -233.5t-271.5 -88.5q-166 0 -272.5 90.5t-106.5 245.5h176q0 -70 56.5 -129t148.5 -59q90 0 144.5 55.5t54.5 122.5q0 63 -51.5 113.5t-171.5 50.5h-21v143h21q109 0 162 39t53 102.5t-48.5 111.5t-140.5 48q-100 0 -149 -56 t-49 -138h-177q0 156 101.5 246t271.5 90q164 0 265.5 -82t101.5 -215q-1 -149 -142 -219zM541 1233h-201v201h201v-201zM909 1233h-200v201h200v-201z" glyph-name="uni04DF" unicode="ӟ"/><glyph d="M84 716.5q0 114.5 14.5 216t52 199t97 167t156 112.5t219.5 43q152 0 261 -62.5t167.5 -172t84 -233.5t25.5 -269.5t-25.5 -269t-84 -233.5t-168 -172t-260.5 -62q-123 0 -219.5 43t-156 112.5t-97 166.5t-52 198.5t-14.5 216zM622.5 1288q-358.5 0 -358.5 -571.5 t358.5 -571.5t358.5 571.5t-358.5 571.5zM340 1636v201h201v-201h-201zM709 1636v201h200v-201h-200z" glyph-name="uni04E6" unicode="Ӧ"/><glyph d="M930 516q0 164 -79 274.5t-230 110.5q-150 0 -226 -110.5t-76 -274.5t77 -274.5t228.5 -110.5t228.5 110.5t77 274.5zM624.5 -20q-231.5 0 -356.5 154.5t-125 381.5t123 381t354.5 154t358.5 -154t127 -381t-125 -381.5t-356.5 -154.5zM541 1233h-201v201h201v-201z M909 1233h-200v201h200v-201z" glyph-name="uni04E7" unicode="ӧ"/><glyph d="M92 449h184q61 -303 342 -304q106 0 182.5 51.5t112 137.5t50 170t14.5 180h-584v156h578q-35 449 -353 448q-283 0 -342 -303h-184q27 207 156 339t370 132q152 0 261.5 -63.5t167 -173t83 -233.5t25.5 -269.5t-25.5 -269t-83 -233.5t-167 -173.5t-261.5 -63.5 q-242 0 -370.5 133.5t-155.5 338.5zM541 1636h-201v201h201v-201zM909 1636h-200v201h200v-201z" glyph-name="uni04EC" unicode="Ӭ"/><glyph d="M143 379h172q25 -117 94.5 -183.5t182.5 -66.5q133 0 205.5 90t83.5 244h-402v141h400q-16 139 -87 219t-196 80q-115 0 -185.5 -64.5t-95.5 -179.5h-172q10 160 133 277t316 117q213 0 342 -155t129 -380q0 -227 -129 -384t-342 -157q-193 0 -316 119t-133 283z M541 1233h-201v201h201v-201zM909 1233h-200v201h200v-201z" glyph-name="uni04ED" unicode="ӭ"/><glyph d="M522 -201v201h203v-201h-203zM522 -492v203h203v-203h-203z" glyph-name="afii57799" unicode="ְ"/><glyph d="M532 -492h-200v203h200v-203zM147 0h201v-201h-201v201zM717 -201h-201v201h201v-201zM1075 -492h-201v203h201v-203zM874 -201v201h201v-201h-201z" glyph-name="afii57801" horiz-adv-x="1310" unicode="ֱ"/><glyph d="M881 -201v201h200v-201h-200zM881 -492v201h200v-201h-200zM141 0h572v-145h-572v145z" glyph-name="afii57800" unicode="ֲ"/><glyph d="M881 -201v201h200v-201h-200zM881 -492v203h200v-203h-200zM141 0h572v-145h-187v-201h-200v201h-185v145z" glyph-name="afii57802" unicode="ֳ"/><glyph d="M727 -201h-203v201h203v-201z" glyph-name="afii57793" unicode="ִ"/><glyph d="M541 -201h-203v201h203v-201zM909 -201h-200v201h200v-201z" glyph-name="afii57794" unicode="ֵ"/><glyph d="M338 -201v201h203v-201h-203zM709 -201v201h200v-201h-200zM522 -492v203h203v-203h-203z" glyph-name="afii57795" unicode="ֶ"/><glyph d="M909 -145h-571v145h571v-145z" glyph-name="afii57798" unicode="ַ"/><glyph d="M326 0h571v-145h-184v-201h-203v201h-184v145z" glyph-name="afii57797" unicode="ָ"/><glyph d="M725 1233h-201v201h201v-201z" glyph-name="afii57806" unicode="ֹ"/><glyph d="M147 -201v201h201v-201h-201zM874 -492v203h201v-203h-201zM516 -346v201h201v-201h-201z" glyph-name="afii57796" unicode="ֻ"/><glyph d="M522 414v202h203v-202h-203z" glyph-name="afii57807" unicode="ּ"/><glyph d="M696 0v-424h-145v424h145z" glyph-name="afii57839" unicode="ֽ"/><glyph d="M909 885h-571v145h571v-145z" glyph-name="afii57645" unicode="־"/><glyph d="M909 1288h-571v146h571v-146z" glyph-name="afii57841" unicode="ֿ"/><glyph d="M702 -246h-157v1569h157v-1569z" glyph-name="afii57842" unicode="׀"/><glyph d="M1014 1233h-203v201h203v-201z" glyph-name="afii57804" unicode="ׁ"/><glyph d="M727 1233h-203v201h203v-201z" glyph-name="afii57803" unicode="ׂ"/><glyph d="M471 743v287h309v-287h-309zM471 0v287h309v-287h-309z" glyph-name="afii57658" unicode="׃"/><glyph d="M348 268v-268h-174v268q0 129 66.5 236.5t175.5 163.5l-242 362h209l307 -459q92 25 151.5 104t59.5 181v174h174v-174q0 -141 -82 -256t-211 -164l293 -436h-211l-358 535q-72 -37 -115 -108t-43 -159z" glyph-name="afii57664" unicode="א"/><glyph d="M770 174v420q0 135 -101.5 210t-248.5 75q-199 0 -348 -23v174q156 23 348 23q246 0 385 -120t139 -339v-420h152v-174h-1024v174h698z" glyph-name="afii57665" unicode="ב"/><glyph d="M846 0l-141 358l-295 -358h-222l453 547v88q0 244 -221 244q-121 0 -219 -23v174q90 23 219 23q205 0 300 -99.5t95 -318.5v-88l205 -547h-174z" glyph-name="afii57666" unicode="ג"/><glyph d="M924 0h-174v856h-699v174h1024v-174h-151v-856z" glyph-name="afii57667" unicode="ד"/><glyph d="M516 879q-238 0 -358 -23v174q158 23 358 23q252 0 392.5 -102.5t140.5 -315.5v-635h-175v635q0 244 -358 244zM158 635h174v-635h-174v635z" glyph-name="afii57668" unicode="ה"/><glyph d="M797 635v-635h-174v635q0 158 -16.5 201t-94.5 43q-61 0 -109 -23v174q47 23 109 23q100 0 158.5 -21.5t86 -81t34 -123t6.5 -192.5z" glyph-name="afii57669" unicode="ו"/><glyph d="M662 0h-175v492q0 141 8.5 213.5t39.5 119.5l-166 54v174l512 -166v-174q-76 23 -111 22q-76 0 -92 -43t-16 -200v-492z" glyph-name="afii57670" unicode="ז"/><glyph d="M537 879q-123 0 -185 -5v-874h-174v1030q158 23 359 23q252 0 392 -102.5t140 -315.5v-635h-174v635q0 244 -358 244z" glyph-name="afii57671" unicode="ח"/><glyph d="M624.5 143q145.5 0 216 57.5t70.5 194.5v217q0 164 -37.5 215.5t-125.5 51.5q-90 0 -164 -23v174q61 23 164 23q180 0 258.5 -98.5t78.5 -342.5v-217q0 -221 -108.5 -319.5t-352 -98.5t-352 98.5t-108.5 319.5v635h174v-635q0 -137 70.5 -194.5t216 -57.5z" glyph-name="afii57672" unicode="ט"/><glyph d="M797 635v-207h-174v207q0 158 -16.5 201t-94.5 43q-57 0 -109 -23v174q51 23 109 23q100 0 158.5 -21.5t86 -81t34 -123t6.5 -192.5z" glyph-name="afii57673" unicode="י"/><glyph d="M463 879q-199 0 -348 -23v174q156 23 348 23q246 0 384 -120t138 -339v-1020h-174v1020q0 135 -100.5 210t-247.5 75z" glyph-name="afii57674" unicode="ך"/><glyph d="M496 152q195 0 272.5 88t77.5 276.5t-78 275.5t-272 87q-199 0 -349 -23v174q156 23 349 23q524 0 524 -537q0 -539 -524 -539q-172 0 -349 23v174q171 -22 349 -22z" glyph-name="afii57675" unicode="כ"/><glyph d="M711 858h-525l2 514h174l-2 -340h351q195 0 271.5 -75.5t76.5 -280.5q0 -174 -70.5 -314.5t-180.5 -220.5t-225.5 -120.5t-220.5 -40.5v174q57 0 138.5 29.5t170.5 87t151.5 165t62.5 240.5q0 45 -3 68.5t-18.5 55t-53.5 45t-99 13.5z" glyph-name="afii57676" unicode="ל"/><glyph d="M537 887q-104 0 -185 -8v-705h543v461q0 131 -101 191.5t-257 60.5zM1069 635v-635h-891v1030q158 23 359 23q252 0 392 -102.5t140 -315.5z" glyph-name="afii57677" unicode="ם"/><glyph d="M563 174h379v375q0 170 -61.5 250t-198.5 80q-57 0 -101 -20.5t-71 -46.5t-49.5 -77t-32.5 -87t-25 -99l-133 -549h-178l152 627l-152 403h174l66 -174q113 197 350 197q213 0 323.5 -130t110.5 -374v-549h-553v174z" glyph-name="afii57678" unicode="מ"/><glyph d="M819 635v-1061h-174v1061q0 137 -41 190.5t-129 53.5q-92 0 -168 -23v174q63 23 168 23q199 0 271.5 -95.5t72.5 -322.5z" glyph-name="afii57679" unicode="ן"/><glyph d="M924 612v-612h-666v174h492v438q0 160 -54.5 217.5t-150.5 57.5q-84 0 -185 -31v174q66 23 185 23q188 0 283.5 -100.5t95.5 -340.5z" glyph-name="afii57680" unicode="נ"/><glyph d="M88 1030h612q135 0 225.5 -31.5t137.5 -70.5t69.5 -132.5t25.5 -158t3 -205.5v-37q0 -221 -108.5 -319.5t-352 -98.5t-352 98.5t-108.5 319.5v469h-152v166zM987 395q0 29 1 90.5t1 89t-4 77.5t-15.5 73t-31.5 55.5t-51 47t-78 25.5t-109 11h-286v-469 q0 -137 70.5 -194.5t216 -57.5t216 57.5t70.5 194.5z" glyph-name="afii57681" unicode="ס"/><glyph d="M860 944v86h174v-86q0 -571 -189.5 -800.5t-629.5 -229.5v174q178 0 303 45l-303 897h174l273 -813q119 100 158.5 275.5t39.5 451.5z" glyph-name="afii57682" unicode="ע"/><glyph d="M137 823v207q158 23 359 23q252 0 392 -102.5t140 -315.5v-1061h-174v1061q0 244 -358 244q-123 0 -185 -5v-51q0 -143 28 -193t110 -50q78 0 135 22v-174q-57 -23 -135 -22q-195 0 -253.5 90.5t-58.5 326.5z" glyph-name="afii57683" unicode="ף"/><glyph d="M137 823v207q158 23 359 23q252 0 392 -102.5t140 -315.5v-217q0 -221 -108.5 -319.5t-352.5 -98.5h-381v166h381q145 0 216 57.5t71 194.5v217q0 244 -358 244q-123 0 -185 -5v-51q0 -143 28 -193t110 -50q78 0 135 22v-174q-57 -23 -135 -22q-195 0 -253.5 90.5 t-58.5 326.5z" glyph-name="afii57684" unicode="פ"/><glyph d="M690 422q20 -94 21 -254v-600h-174v600q0 164 -21 231q-14 51 -93 130t-108 135q-49 92 -49 208v152h174v-152q0 -74 29 -129q25 -49 87 -112.5t69 -69.5q78 41 131 122t53 189v152h174v-152q0 -170 -82 -285.5t-211 -164.5z" glyph-name="afii57685" unicode="ץ"/><glyph d="M758 455q76 -59 114.5 -93t74.5 -88.5t36 -105.5q0 -66 -38 -120t-136 -54h-494v174h494q-14 51 -110.5 128t-215 175t-168.5 193q-49 92 -49 208v152h174v-152q0 -92 48.5 -163.5t136.5 -147.5q76 39 130 121t54 190v152h174v-152q0 -145 -61.5 -251.5t-163.5 -165.5z " glyph-name="afii57686" unicode="צ"/><glyph d="M246 -426v1131h174v-1131h-174zM817 879h-571v174h571q197 0 273.5 -75t76.5 -280q0 -141 -54 -268t-141 -216t-184.5 -149.5t-193.5 -87.5v193q145 59 272 203.5t127 324.5q0 45 -3 67.5t-18.5 54.5t-53.5 45.5t-101 13.5z" glyph-name="afii57687" unicode="ק"/><glyph d="M768 0v635q0 244 -358 244q-100 0 -185 -23v174q96 23 185 23q252 0 392 -102.5t140 -315.5v-635h-174z" glyph-name="afii57688" unicode="ר"/><glyph d="M1014 1030h174q0 -580 -209 -805t-743 -225h-175v1030h175v-463q344 0 344 463h174q0 -295 -134.5 -467t-383.5 -172v-217q438 0 608 187.5t170 668.5z" glyph-name="afii57689" unicode="ש"/><glyph d="M563 879h-125v-570q0 -176 -48 -252.5t-165 -76.5q-51 0 -112 20v174q39 -23 75 -22q14 0 25.5 3t19 10t13.5 13t9 18.5t5 20.5t3 23.5t1 22.5v23.5v22.5v563q-111 -8 -151 -16v174q156 23 450 23q252 0 392.5 -102.5t140.5 -315.5v-635h-174v635q-1 244 -359 244z" glyph-name="afii57690" unicode="ת"/><glyph d="M475 635v-635h-174v635q0 158 -16.5 201t-94.5 43q-61 0 -108 -23v174q47 23 108 23q100 0 159 -21.5t86.5 -81t33.5 -123t6 -192.5zM1004 635v-635h-175v635q0 158 -16 201t-94 43q-61 0 -109 -23v174q47 23 109 23q100 0 158.5 -21.5t86 -81t34 -123t6.5 -192.5z" glyph-name="afii57716" unicode="װ"/><glyph d="M475 635v-207h-174v207q0 158 -16.5 201t-94.5 43q-61 0 -108 -23v174q47 23 108 23q100 0 159 -21.5t86.5 -81t33.5 -123t6 -192.5zM1004 635v-635h-175v635q0 158 -16 201t-94 43q-61 0 -109 -23v174q47 23 109 23q100 0 158.5 -21.5t86 -81t34 -123t6.5 -192.5z" glyph-name="afii57717" unicode="ױ"/><glyph d="M475 635v-207h-174v207q0 158 -16.5 201t-94.5 43q-61 0 -108 -23v174q47 23 108 23q100 0 159 -21.5t86.5 -81t33.5 -123t6 -192.5zM1004 635v-207h-175v207q0 158 -16 201t-94 43q-61 0 -109 -23v174q47 23 109 23q100 0 158.5 -21.5t86 -81t34 -123t6.5 -192.5z" glyph-name="afii57718" unicode="ײ"/><glyph d="M625 1167h-154v287h309v-287q0 -162 -87 -260t-222 -98v135q66 0 110 65.5t44 157.5z" glyph-name="uni05F3" unicode="׳"/><glyph d="M401 1167h-153v287h309v-287q0 -162 -87 -260t-222 -98v135q66 0 109.5 65.5t43.5 157.5zM690 1167v287h309v-287q0 -162 -86 -260t-223 -98v135q68 0 112 65.5t44 157.5h-156z" glyph-name="uni05F4" unicode="״"/><glyph d="M604 829l604 -829h-200l-516 717l-179 -178v-539h-180v1434h180v-682l682 682h213zM870 1747l-436 -238l-55 82l403 295z" glyph-name="uni1E30" unicode="Ḱ"/><glyph d="M625 463l-191 -201v-262h-174v1454h174v-977l510 553h201l-408 -444l420 -586h-203zM707 1106l-56 82l404 295l90 -140z" glyph-name="uni1E31" unicode="ḱ"/><glyph d="M289 1120v-1120h-180v1434h235l281 -830l280 830h236v-1434h-180v1120l-246 -671h-180zM1014 1747l-436 -238l-56 82l404 295z" glyph-name="uni1E3E" unicode="Ḿ"/><glyph d="M922 1051q123 0 189.5 -89.5t66.5 -244.5v-717h-172v717q0 90 -28 134t-97 44q-72 0 -113 -79t-41 -189v-627h-172v717q0 90 -27.5 134t-97.5 44q-72 0 -113 -79t-41 -189v-627h-174v1030h160l14 -133q16 57 70.5 105.5t124.5 48.5q145 0 215 -154q33 63 95.5 108.5 t140.5 45.5zM993 1343l-436 -237l-55 82l403 295z" glyph-name="uni1E3F" unicode="ḿ"/><glyph d="M375 1276v-524h356q133 0 213 73.5t80 188t-80 188.5t-213 74h-356zM375 594v-594h-180v1434h536q215 0 343 -103.5t128 -316.5t-128 -316.5t-343 -103.5h-356zM1014 1747l-436 -238l-56 82l404 295z" glyph-name="uni1E54" unicode="Ṕ"/><glyph d="M369 -424h-174v1454h159l15 -129q43 70 131 110t178 40q221 0 340 -158t119 -381q0 -221 -119 -376.5t-340 -155.5q-92 0 -178 45t-131 110v-559zM678 131q137 0 207.5 109.5t70.5 271.5q0 166 -69.5 277.5t-206.5 111.5q-74 0 -131 -25.5t-91 -65.5t-54.5 -94 t-27.5 -102.5t-7 -101.5q0 -66 13 -126t44 -120.5t95.5 -97.5t156.5 -37zM618 1106l-55 82l404 295l88 -140z" glyph-name="uni1E55" unicode="ṕ"/><glyph d="M66 1434h178l45 -1121l246 672h180l246 -672l45 1121h178l-101 -1434h-178l-280 829l-281 -829h-178zM666 1591l-56 -82l-436 238l88 139z" glyph-name="Wgrave" unicode="Ẁ"/><glyph d="M893 180l96 850h172l-139 -1030h-197l-200 582l-201 -582h-197l-141 1030h174l96 -850l201 584h135zM262 1483l404 -295l-56 -82l-436 237z" glyph-name="wgrave" unicode="ẁ"/><glyph d="M66 1434h178l45 -1121l246 672h180l246 -672l45 1121h178l-101 -1434h-178l-280 829l-281 -829h-178zM618 1509l-55 82l404 295l88 -139z" glyph-name="Wacute" unicode="Ẃ"/><glyph d="M893 180l96 850h172l-139 -1030h-197l-200 582l-201 -582h-197l-141 1030h174l96 -850l201 584h135zM1055 1343l-437 -237l-55 82l404 295z" glyph-name="wacute" unicode="ẃ"/><glyph d="M66 1434h178l45 -1121l246 672h180l246 -672l45 1121h178l-101 -1434h-178l-280 829l-281 -829h-178zM340 1636v201h201v-201h-201zM709 1636v201h200v-201h-200z" glyph-name="Wdieresis" unicode="Ẅ"/><glyph d="M893 180l96 850h172l-139 -1030h-197l-200 582l-201 -582h-197l-141 1030h174l96 -850l201 584h135zM541 1233h-201v201h201v-201zM909 1233h-200v201h200v-201z" glyph-name="wdieresis" unicode="ẅ"/><glyph d="M715 582v-582h-180v582l-525 852h199l416 -684l413 684h201zM283 1886l403 -295l-55 -82l-436 238z" glyph-name="Ygrave" unicode="Ỳ"/><glyph d="M160 -424v172q78 -41 180 -41q111 0 156 115l67 168l-448 1040h202l338 -850l334 850h201l-508 -1208q-57 -133 -130 -199.5t-212 -66.5q-94 0 -180 20zM303 1483l404 -295l-56 -82l-436 237z" glyph-name="ygrave" unicode="ỳ"/><glyph d="M115 700h1018v-168h-1018v168z" glyph-name="endash" unicode="–"/><glyph d="M31 700h1188v-168h-1188v168z" glyph-name="emdash" unicode="—"/><glyph d="M31 700h1188v-168h-1188v168z" glyph-name="afii00208" unicode="―"/><glyph d="M778 1096v-287h-309v287q0 162 86 260t223 98v-135q-68 0 -111.5 -65.5t-43.5 -157.5h155z" glyph-name="quoteleft" unicode="‘"/><glyph d="M469 1167v287h309v-287q0 -162 -86 -260t-223 -98v135q68 0 112 65.5t44 157.5h-156z" glyph-name="quoteright" unicode="’"/><glyph d="M469 0v287h309v-287q0 -162 -86 -260t-223 -98v135q68 0 112 65.5t44 157.5h-156z" glyph-name="quotesinglbase" unicode="‚"/><glyph d="M737 784h-225l45 650h135z" glyph-name="quotereversed" unicode="‛"/><glyph d="M846 1096h153v-287h-309v287q0 162 87 260t222 98v-135q-66 0 -109.5 -65.5t-43.5 -157.5zM557 1096v-287h-309v287q0 162 86 260t223 98v-135q-68 0 -112 -65.5t-44 -157.5h156z" glyph-name="quotedblleft" unicode="“"/><glyph d="M401 1167h-153v287h309v-287q0 -162 -87 -260t-222 -98v135q66 0 109.5 65.5t43.5 157.5zM690 1167v287h309v-287q0 -162 -86 -260t-223 -98v135q68 0 112 65.5t44 157.5h-156z" glyph-name="quotedblright" unicode="”"/><glyph d="M401 0h-153v287h309v-287q0 -162 -87 -260t-222 -98v135q66 0 109.5 65.5t43.5 157.5zM690 0v287h309v-287q0 -162 -86 -260t-223 -98v135q68 0 112 65.5t44 157.5h-156z" glyph-name="quotedblbase" unicode="„"/><glyph d="M176 874v179l359 -35v416h178v-416l358 35v-179l-360 35l-43 -1155h-88l-43 1155z" glyph-name="dagger" unicode="†"/><glyph d="M176 874v179l383 -37l-24 418h178l-25 -418l383 37v-179l-389 39v-639l389 39v-178l-383 39l25 -420h-178l24 420l-383 -39v178l389 -39v639z" glyph-name="daggerdbl" unicode="‡"/><glyph d="M610 319q-111 0 -189.5 79t-78.5 190q0 113 79 191.5t189 78.5q113 0 192 -79t79 -191q0 -111 -79 -190t-192 -79z" glyph-name="bullet" unicode="•"/><glyph d="M354 0h-200v203h200v-203zM1094 0h-201v203h201v-203zM725 0h-203v203h203v-203z" glyph-name="ellipsis" unicode="…"/><glyph d="M383 918q-117 0 -186.5 74.5t-69.5 183t69.5 183.5t186.5 75t186.5 -75t69.5 -183.5t-69.5 -183t-186.5 -74.5zM383 1323q-63 0 -104 -43t-41 -104.5t40.5 -104.5t104.5 -43q61 0 103 43t42 104.5t-42 104.5t-103 43zM37 399l985 822l78 -93l-985 -821zM954 516 q117 0 186.5 -74.5t69.5 -183t-69.5 -183.5t-186.5 -75q-74 0 -145 45q-72 -45 -145 -45q-117 0 -186.5 75t-69.5 183.5t69.5 183t186.5 74.5q74 0 145 -45q71 45 145 45zM954 111q63 0 104.5 43t41.5 104t-41 104.5t-105 43.5q-90 0 -129 -80h-30q-39 80 -131 80 q-63 0 -104.5 -43.5t-41.5 -104.5t41 -104t105 -43q92 0 131 79h30q39 -79 129 -79z" glyph-name="perthousand" unicode="‰"/><glyph d="M557 784l-45 650h225l-45 -650h-135z" glyph-name="minute" unicode="′"/><glyph d="M365 784l-46 650h226l-45 -650h-135zM723 784l-45 650h225l-45 -650h-135z" glyph-name="second" unicode="″"/><glyph d="M930 1075l-314 -448l314 -447h-193l-338 447l338 448h193z" glyph-name="guilsinglleft" unicode="‹"/><glyph d="M317 180l314 447l-314 448h195l336 -448l-336 -447h-195z" glyph-name="guilsinglright" unicode="›"/><glyph d="M231 0v289h312v-289h-312zM297 469l-23 987h226l-23 -987h-180zM709 0v289h309v-289h-309zM774 469l-22 987h223l-23 -987h-178z" glyph-name="exclamdbl" unicode="‼"/><glyph d="M733 1305l-12 -469q10 6 27 18l2 2q49 35 73.5 57.5t47 65.5t22.5 96q0 80 -42 142.5t-118 87.5zM356 1030h-180q0 178 125 313.5t322 135.5q201 0 324.5 -116t123.5 -288q0 -84 -29.5 -147.5t-59.5 -92t-89 -73.5t-89 -74t-59.5 -92.5t-29.5 -146.5h-183q0 25 3 36 l-19 813q-76 -35 -118 -110.5t-42 -157.5zM778 0h-309v289h309v-289z" glyph-name="uni203D" unicode="‽"/><glyph d="M41 51l1042 1428l123 -97l-1042 -1427z" glyph-name="fraction" unicode="⁄"/><glyph d="M373 1434l16 -179q43 94 131 146.5t180 52.5q182 0 274.5 -111.5t92.5 -312.5v-627h-174v627q0 137 -55.5 202.5t-173.5 65.5q-80 0 -136.5 -43t-85 -114.5t-41 -142t-12.5 -146.5v-449h-174v1031h158z" glyph-name="uni207F" unicode="ⁿ"/><glyph d="M788 805v-805h-163v616l-209 -141v182l209 148h163z" glyph-name="uni2081" unicode="₁"/><glyph d="M1004 0h-621v145l350 293q51 41 69.5 66.5t18.5 70.5q0 47 -38 81t-109 34q-74 0 -111 -42t-37 -101h-157q2 133 86 210t219 77t223 -68t88 -191q0 -59 -25.5 -109t-52 -79t-76.5 -68l-219 -176h392v-143z" glyph-name="uni2082" unicode="₂"/><glyph d="M530 547h-157q2 133 86 210t219 77t223 -68t88 -191q0 -49 -28.5 -96t-77.5 -61q59 -18 91 -69.5t32 -115.5q0 -133 -94.5 -197.5t-233.5 -64.5q-133 0 -219 77t-94 210h157q4 -59 43 -101t113 -42q80 0 121 33.5t41 80.5q0 127 -189 127v129h8q47 0 76 3.5t59.5 25 t30.5 61.5q0 47 -37.5 81t-109.5 34q-74 0 -111 -42t-37 -101z" glyph-name="uni2083" unicode="₃"/><glyph d="M885 172v-172h-164v172h-379v158l301 504h184l-301 -519h195v203h164v-203h143v-143h-143z" glyph-name="uni2084" unicode="₄"/><glyph d="M154 336v135h178v963h762v-156h-582v-449h449v-157h-449v-201h268v-135h-268v-336h-180v336h-178z" glyph-name="franc" unicode="₣"/><glyph d="M963 291h174q0 -291 -353 -291h-632v158q178 0 178 133v213h-178v135h178v156h-178v135h178v100q0 205 112.5 314.5t266 109.5t266 -109.5t112.5 -314.5h-174q0 137 -61 201.5t-143 64.5t-143.5 -64.5t-61.5 -201.5v-100h274v-135h-274v-156h274v-135h-274v-213 q0 -133 -129 -133h409q179 0 179 133z" glyph-name="lira" unicode="₤"/><glyph d="M500 942v-190h178q145 0 218 71.5t73 190.5t-73 191.5t-218 72.5h-178v-203h313v-133h-313zM141 1075h178v359h359q213 0 342 -102.5t129 -311.5q0 -217 -128 -321.5t-343 -104.5h-178v-594h-181v942h-178v133z" glyph-name="peseta" unicode="₧"/><glyph d="M702 174h330v856h174v-1030h-504q-137 0 -233 97.5t-96 234.5v399h172v-369q0 -78 45.5 -133t111.5 -55zM545 858h-330v-858h-172v1030h502q137 0 234.5 -96t97.5 -234v-401h-175v369q0 78 -45.5 134t-111.5 56z" glyph-name="afii57636" unicode="₪"/><glyph d="M860 1311v143h174v-143h189v-146h-189v-1165h-160l-14 129q-43 -70 -131 -109.5t-180 -39.5q-219 0 -338 157.5t-119 380.5q0 141 47 259t153.5 196t256.5 78q92 0 179 -44t132 -110v268h-196v146h196zM549 901q-135 0 -206 -110.5t-71 -272.5q0 -166 70 -276.5 t207 -110.5q92 0 157.5 37t96.5 99.5t44 123t13 127.5q0 66 -13 126.5t-44 121.5t-96.5 98t-157.5 37zM172 -213h862v-145h-862v145z" glyph-name="dong" unicode="₫"/><glyph d="M92 795v135h283q37 236 162 380t362 144q147 0 256 -51v-223q-86 106 -256 106q-283 0 -342 -356h430v-135h-444q-2 -27 -2 -78l2 -78h444v-135h-432q63 -358 344 -359q166 0 256 111v-223q-111 -55 -256 -56q-123 0 -219 42t-156.5 117t-96.5 165t-52 203h-283v135h270 q-2 25 -2 78t2 78h-270z" glyph-name="Euro" unicode="€"/><glyph d="M358 807q-133 0 -215 90t-82 245.5t82 246t215 90.5q111 0 185.5 -60.5t97.5 -175.5h-123q-20 57 -62 91t-96 34q-76 0 -126 -60.5t-50 -165t49.5 -164.5t124.5 -60q55 0 98.5 34.5t61.5 96.5h123q-20 -119 -95 -180.5t-188 -61.5zM125 399l985 822l78 -93l-987 -821z M889 672q135 0 217 -90t82 -246t-82 -246t-217 -90q-133 0 -215 90t-82 246t82 246t215 90zM889 113q74 0 125 60t51 162.5t-51 163t-125 62.5q-74 -2 -124 -62.5t-50 -163t50 -162.5t124 -60z" glyph-name="afii61248" unicode="℅"/><glyph d="M453 403v1031h172v-1031q0 -137 61.5 -202.5t142.5 -65.5q39 0 70 15v-166q-35 -6 -70 -7q-152 0 -264 110.5t-112 315.5z" glyph-name="afii61289" unicode="ℓ"/><glyph d="M983 717q-111 0 -168 96t-57 262q0 168 57 263.5t168 95.5t167 -95.5t56 -263.5t-57 -263t-166 -95zM983 1288q-51 0 -70.5 -53t-19.5 -159.5t19.5 -159t70.5 -52.5t69.5 52.5t18.5 159t-18.5 159.5t-69.5 53zM1206 465h-448v145h448v-145zM190 1434l345 -1076v1076h133 v-1434h-150l-342 1075v-1075h-135v1434h149z" glyph-name="afii61352" unicode="№"/><glyph d="M63 739.5q0 241.5 160 401t401.5 159.5t400.5 -159.5t159 -401t-159 -400.5t-400.5 -159t-401.5 159t-160 400.5zM176 739.5q0 -194.5 127 -320.5t321.5 -126t320.5 126t126 320.5t-126 321.5t-320.5 127t-321.5 -127t-127 -321.5zM555 449h-113v581h238q88 0 142.5 -46 t54.5 -132q0 -88 -54.5 -134t-142.5 -46h-125v-223zM555 942v-180h125q41 0 63.5 26.5t22.5 63.5t-22.5 63.5t-63.5 26.5h-125z" glyph-name="uni2117" unicode="℗"/><glyph d="M881 897l-127 332v-512h-113v717h145l146 -404l135 404h154v-717h-111v512l-129 -332h-100zM557 1434v-113h-205v-604h-129v604h-203v113h537z" glyph-name="trademark" unicode="™"/><glyph d="M82 770q0 684 547 684q537 0 536 -684q0 -193 -64.5 -359.5t-203.5 -220.5v-45h246v-145h-402v264q246 82 246 506q0 532 -362 533q-365 0 -365 -533q0 -424 248 -506v-264h-404v145h246v45q-137 53 -202.5 221.5t-65.5 358.5z" glyph-name="uni2126" unicode="Ω"/><glyph d="M624.5 1300q241.5 0 400.5 -159.5t159 -401t-159 -400.5t-400.5 -159t-401.5 159t-160 400.5t160 401t401.5 159.5zM624.5 293q194.5 0 320.5 126t126 320.5t-126 321.5t-320.5 127t-321.5 -127t-127 -321.5t127 -320.5t321.5 -126zM625 1040q119 0 192.5 -79.5 t73.5 -221.5v-37h-420q8 -76 51 -119.5t103 -43.5q88 0 129 84h116q-25 -90 -89 -137.5t-156 -47.5q-121 0 -195 81t-74 220q0 141 74 221t195 80zM471 780h305q-10 76 -51 118t-98 42q-59 0 -102.5 -42t-53.5 -118z" glyph-name="estimated" unicode="℮"/><glyph d="M92 399l985 822l78 -93l-985 -821zM442 829h-129v480l-161 -109v141l161 115h129v-627zM1053 348q43 -14 67.5 -54t24.5 -89q0 -100 -72 -152.5t-174 -52.5t-174 52t-72 153q0 49 26 89t69 54q-33 14 -55.5 53t-22.5 78q0 96 65.5 144.5t163.5 48.5q100 0 164.5 -48.5 t64.5 -144.5q0 -39 -22 -78t-53 -53zM899.5 565q-104.5 0 -104.5 -86q0 -74 104 -78q104 4 105 78q0 86 -104.5 86zM899 113q121 0 121 90q0 47 -34 71.5t-87 24.5t-86 -24.5t-33 -71.5q0 -90 119 -90z" glyph-name="oneeighth" unicode="⅛"/><glyph d="M1053 348q43 -14 67.5 -54t24.5 -89q0 -100 -72 -152.5t-174 -52.5t-174 52t-72 153q0 49 26 89t69 54q-33 14 -54.5 53t-21.5 78q0 96 64.5 144.5t162.5 48.5q100 0 164.5 -48.5t64.5 -144.5q0 -39 -22 -78t-53 -53zM899.5 565q-104.5 0 -104.5 -86q0 -74 104 -78 q104 4 105 78q0 86 -104.5 86zM899 113q121 0 121 90q0 47 -34 71.5t-87 24.5t-86 -24.5t-33 -71.5q0 -90 119 -90zM336 920q61 0 93 25.5t32 62.5q0 98 -146 98v102h7q39 0 60 2t45 18.5t24 49.5q0 37 -29 62.5t-86 25.5t-86 -31.5t-29 -79.5h-123q2 104 67.5 164t170 60 t174.5 -52.5t70 -148.5q0 -39 -22.5 -75t-61.5 -48q45 -14 70.5 -54t25.5 -89q0 -104 -74 -154.5t-182 -50.5q-104 0 -171 59.5t-73 163.5h123q4 -47 34 -78.5t87 -31.5zM92 399l985 822l78 -93l-985 -821z" glyph-name="threeeighths" unicode="⅜"/><glyph d="M338 920q55 0 87 31.5t34 78.5q2 51 -32 91t-95 40q-84 0 -113 -55h-115l15 350h397v-113h-297l-4 -129q35 49 141 50q102 0 159.5 -71t55.5 -163t-62 -157.5t-171 -65.5t-178.5 59.5t-67.5 163.5h115q0 -51 36 -80.5t95 -29.5zM92 399l985 822l78 -93l-985 -821z M1053 348q43 -14 67.5 -54t24.5 -89q0 -100 -72 -152.5t-174 -52.5t-174 52t-72 153q0 49 26 89t69 54q-33 14 -55.5 53t-22.5 78q0 96 65.5 144.5t163.5 48.5q100 0 164.5 -48.5t64.5 -144.5q0 -39 -22 -78t-53 -53zM899.5 565q-104.5 0 -104.5 -86q0 -74 104 -78 q104 4 105 78q0 86 -104.5 86zM899 113q121 0 121 90q0 47 -34 71.5t-87 24.5t-86 -24.5t-33 -71.5q0 -90 119 -90z" glyph-name="fiveeighths" unicode="⅝"/><glyph d="M1053 348q43 -14 67.5 -54t24.5 -89q0 -100 -72 -152.5t-174 -52.5t-174 52t-72 153q0 49 26 89t69 54q-33 14 -54.5 53t-21.5 78q0 96 64.5 144.5t162.5 48.5q100 0 164.5 -48.5t64.5 -144.5q0 -39 -22 -78t-53 -53zM899.5 565q-104.5 0 -104.5 -86q0 -74 104 -78 q104 4 105 78q0 86 -104.5 86zM899 113q121 0 121 90q0 47 -34 71.5t-87 24.5t-86 -24.5t-33 -71.5q0 -90 119 -90zM403 829h-133l279 514h-328v113h461v-113zM92 399l985 822l78 -93l-985 -821z" glyph-name="seveneighths" unicode="⅞"/><glyph d="M39 588l539 538l110 -110l-348 -348h889v-158h-889l348 -348l-110 -111z" glyph-name="arrowleft" unicode="←"/><glyph d="M197 559l-111 111l539 538l538 -538l-112 -111l-349 348v-889h-157v889z" glyph-name="arrowup" unicode="↑"/><glyph d="M559 1016l111 110l538 -538l-538 -537l-111 111l348 348h-889v158h889z" glyph-name="arrowright" unicode="→"/><glyph d="M625 18l-539 539l111 111l348 -349v889h157v-889l349 349l112 -111z" glyph-name="arrowdown" unicode="↓"/><glyph d="M539 1165l-258 -370h686l-258 370h194l336 -448l-336 -449h-194l258 371h-686l258 -371h-193l-336 449l336 448h193z" glyph-name="arrowboth" unicode="↔"/><glyph d="M86 918l539 538l538 -538l-112 -111l-349 350v-878l349 348l112 -111l-538 -539l-539 539l111 111l348 -348v878l-348 -350z" glyph-name="arrowupdn" unicode="↕"/><glyph d="M567 76l-538 538l538 539l111 -111l-348 -348h731v760h158v-917h-889l348 -351z" glyph-name="carriagereturn" unicode="↵"/><glyph d="M909 788q-23 498 -356 498q-170 0 -258 -108v223q113 53 258 53q152 0 261.5 -62.5t166.5 -173t83 -233.5t26 -268q0 -737 -492 -737q-203 0 -335 135t-132 346q0 215 132 353t335 138q96 0 185 -46t126 -118zM596 795q-135 0 -212 -95.5t-77 -234.5t77 -233.5t212 -94.5 q137 0 215 94.5t78 233.5q0 141 -78 235.5t-215 94.5z" glyph-name="partialdiff" unicode="∂"/><glyph d="M63 739.5q0 241.5 160 401t401.5 159.5t400.5 -159.5t159 -401t-159 -400.5t-400.5 -159t-401.5 159t-160 400.5zM981 1018l-637 -637q121 -88 281 -88q195 0 320.5 126t125.5 320q0 162 -90 279zM625 1188q-195 0 -322 -127t-127 -322q0 -158 88 -278l637 637 q-116 90 -276 90z" glyph-name="emptyset" unicode="∅"/><glyph d="M41 0l471 1434h203l493 -1434h-1167zM614 1255l-340 -1087h699z" glyph-name="uni2206" unicode="∆"/><glyph d="M354 0h-178v1434h895v-1434h-178v1276h-539v-1276z" glyph-name="product" unicode="∏"/><glyph d="M924 645l-537 -645h705v-145h-895v145l536 645l-514 643v146h873v-146h-682z" glyph-name="summation" unicode="∑"/><glyph d="M96 700h1055v-168h-1055v168z" glyph-name="minus" unicode="−"/><glyph d="M1133 1534l-510 -1557h-127l-387 1053h165l285 -784l455 1433h366v-145h-247z" glyph-name="radical" unicode="√"/><glyph d="M938 866q131 0 210 -78.5t79 -199.5t-79 -199t-210 -78t-205 74l-108 109l-111 -109q-70 -74 -205 -74q-129 0 -207.5 78t-78.5 199t78.5 199.5t207.5 78.5q135 0 205 -73l111 -111l108 111q74 73 205 73zM420 479l110 109l-110 110q-43 47 -111 47q-66 0 -107.5 -46 t-41.5 -111.5t42 -110.5t107 -45q68 0 111 47zM938 432q66 0 109 46t43 110q0 66 -43 111.5t-109 45.5q-68 0 -111 -47l-108 -110l108 -109q43 -47 111 -47z" glyph-name="infinity" unicode="∞"/><glyph d="M711 1030v-842q0 -205 -113 -314.5t-266 -109.5q-37 0 -70 7v166q31 -14 70 -15q82 0 143.5 64.5t61.5 201.5v842q0 205 112.5 314.5t265.5 109.5q37 0 70 -6v-166q-31 14 -70 14q-82 0 -143 -64.5t-61 -201.5z" glyph-name="integral" unicode="∫"/><glyph d="M215 311l-106 117q92 90 161.5 121t151.5 31q88 0 218 -64.5t185 -64.5q92 0 207 106l107 -119q-94 -94 -163 -124.5t-151 -30.5q-88 0 -218 64.5t-185 64.5q-107 -1 -207 -101zM215 680l-106 117q92 90 161.5 121.5t151.5 31.5q88 0 218 -65.5t185 -65.5q92 0 207 107 l107 -117q-94 -94 -162 -126t-152 -32q-88 0 -217 65.5t-186 65.5q-107 0 -207 -102z" glyph-name="approxequal" unicode="≈"/><glyph d="M625 489h491v-167h-610l-168 -240l-121 86l111 154h-197v167h313l179 252h-492v168h610l170 240l119 -84l-108 -156h194v-168h-313z" glyph-name="notequal" unicode="≠"/><glyph d="M119 952v168h985v-168h-985zM119 532v168h985v-168h-985zM119 113v168h985v-168h-985z" glyph-name="equivalence" unicode="≡"/><glyph d="M1071 0h-895v145h895v-145zM1071 436l-57 -131l-815 367v135l815 367l57 -132l-694 -303z" glyph-name="lessequal" unicode="≤"/><glyph d="M1071 145v-145h-895v145h895zM1049 672l-816 -367l-57 131l694 303l-694 303l57 132l816 -367v-135z" glyph-name="greaterequal" unicode="≥"/><glyph d="M624.5 1300q241.5 0 400.5 -159.5t159 -401t-159 -400.5t-400.5 -159t-401.5 159t-160 400.5t160 401t401.5 159.5zM624.5 293q194.5 0 320.5 126t126 320.5t-126 321.5t-320.5 127t-321.5 -127t-127 -321.5t127 -320.5t321.5 -126zM680 1075v-280h281v-111h-281v-281 h-113v281h-278v111h278v280h113z" glyph-name="circleplus" unicode="⊕"/><glyph d="M624.5 1300q241.5 0 400.5 -159.5t159 -401t-159 -400.5t-400.5 -159t-401.5 159t-160 400.5t160 401t401.5 159.5zM624.5 293q194.5 0 320.5 126t126 320.5t-126 321.5t-320.5 127t-321.5 -127t-127 -321.5t127 -320.5t321.5 -126zM625 819l196 197l80 -78l-199 -199 l199 -198l-80 -78l-196 196l-199 -196l-80 78l199 198l-199 199l80 78z" glyph-name="circlemultiply" unicode="⊗"/><glyph d="M61 1030l564 516l563 -516v-817h-1127v817zM229 381h791v559l-395 348l-396 -348v-559z" glyph-name="house" unicode="⌂"/><glyph d="M614 1030v-1030h-172v1030q0 205 113 315.5t264 110.5q37 0 70 -6v-164q-35 12 -70 12q-82 0 -143.5 -65.5t-61.5 -202.5z" glyph-name="integraltp" unicode="⌠"/><glyph d="M635 403v1031h172v-1031q0 -205 -112.5 -315.5t-264.5 -110.5q-37 0 -70 7v163q33 -12 70 -12q82 0 143.5 65.5t61.5 202.5z" glyph-name="integralbt" unicode="⌡"/><glyph d="M113 571l512 887l512 -887h-1024z" glyph-name="triagup" unicode="▲"/><glyph d="M283 1229l886 -512l-886 -512v1024z" glyph-name="triagrt" unicode="►"/><glyph d="M1137 864l-512 -887l-512 887h1024z" glyph-name="triagdn" unicode="▼"/><glyph d="M965 205l-887 512l887 512v-1024z" glyph-name="triaglf" unicode="◄"/><glyph d="M176 717l359 717h178l358 -717l-358 -717h-178zM354 717l271 -537l268 537l-268 538z" glyph-name="lozenge" unicode="◊"/><glyph d="M1055 801q0 -78 -80 -185q61 -98 63 -308t-61 -308h-651l10 264q-143 252 -143 492q0 238 36 700h254q33 -262 37 -452q72 90 148 108q27 8 63 8q70 0 128.5 -34.5t90.5 -94.5q105 -73 105 -190zM819 461l-37 43q152 137 162 260q-70 -119 -192 -227l-37 43 q180 162 151 315q-8 51 -46 82t-89 31q-12 0 -18 -2l116 -117q-61 -188 -163 -285q29 -49 40 -155.5t-6 -169.5h-57q0 88 -32.5 205.5t-75.5 158.5q125 92 172 209l-43 47q-70 -16 -154 -131t-84 -190h-55q0 84 14 153q45 188 4 612h-61q-23 -252 -23 -587q0 -104 36 -218 t64.5 -168.5t36.5 -62.5v-192h469q25 102 21 229t-37 186q-10 -10 -38 -35.5t-38 -33.5z" glyph-name="uni261E" unicode="☞"/><glyph d="M624.5 1143q241.5 0 411.5 -170t170 -412t-170 -413t-411.5 -171t-412.5 171t-171 413t171 412t412.5 170zM624.5 90q194.5 0 332 138.5t137.5 332.5q0 193 -137.5 331t-332 138t-332.5 -137t-138 -331.5t138 -333t332.5 -138.5zM440 807h113v-180h-113v180zM694 807h113 v-180h-113v180zM625 539q111 0 189.5 -79t78.5 -192h-113q0 66 -45 112t-110.5 46t-111.5 -46t-46 -112h-113q0 113 79 192t192 79z" glyph-name="uni2639" unicode="☹"/><glyph d="M626.5 1143q241.5 0 411.5 -170t170 -412t-170 -413t-411.5 -171t-412.5 171t-171 413t171 412t412.5 170zM626.5 90q194.5 0 332 138.5t137.5 332.5q0 193 -138.5 331t-330.5 138q-195 0 -333 -137t-138 -331.5t138 -333t332.5 -138.5zM696 852h113v-225h-113v225z M442 852h113v-225h-113v225zM872 561h113q0 -150 -105.5 -254t-252.5 -104q-150 0 -254.5 104.5t-104.5 253.5h111q0 -102 72.5 -175t175 -73t174 73t71.5 175z" glyph-name="smileface" unicode="☺"/><glyph d="M624.5 1143q241.5 0 411.5 -170t170 -412t-170 -413t-411.5 -171t-412.5 171t-171 413t171 412t412.5 170zM807 852h-113v-225h113v225zM553 852h-113v-225h113v225zM625 203q147 0 252.5 104.5t105.5 253.5h-113q0 -102 -71.5 -175t-174 -73t-175 73t-72.5 175h-111 q0 -150 104.5 -254t254.5 -104z" glyph-name="invsmileface" unicode="☻"/><glyph d="M1206 930v-113h-229q-12 -82 -64 -153l162 -162l-80 -80l-159 162q-70 -51 -156 -64v-229h-113v229q-82 12 -153 64l-162 -162l-80 80l162 162q-51 72 -64 153h-229v113h229q12 86 64 155l-162 160l80 80l162 -162q70 51 153 66v227h113v-227q86 -16 156 -66l159 162 l80 -80l-162 -160q51 -70 64 -155h229zM624.5 627q102.5 0 174 72.5t71.5 174.5q0 100 -72.5 173t-172.5 73q-102 0 -175 -71.5t-73 -174t72.5 -175t175 -72.5z" glyph-name="sun" unicode="☼"/><glyph d="M680 563v-327h303v-113h-303v-391h-113v391h-301v113h301v327q-166 23 -278.5 149t-112.5 296q0 186 131 317t318 131q184 0 315 -131t131 -317q0 -170 -112.5 -296t-278.5 -149zM625 672q137 0 236.5 98t99.5 237.5t-98.5 237.5t-238 98t-237.5 -98t-98 -237.5 t98.5 -237.5t237.5 -98z" glyph-name="female" unicode="♀"/><glyph d="M1069 1456l154 -573l-109 -29l-104 389l-267 -461q178 -135 179 -356q0 -186 -131.5 -317.5t-317.5 -131.5t-317 131.5t-131 317.5t131 317t317 131q92 0 174 -34l266 458l-391 -104l-28 109zM809 426q0 139 -98.5 237.5t-237.5 98.5t-237.5 -98.5t-98.5 -237.5 t98.5 -237.5t237.5 -98.5t237.5 98.5t98.5 237.5z" glyph-name="male" unicode="♂"/><glyph d="M412 539q92 0 163 -56v820h115q182 0 304 -101.5t122 -279.5h-115q0 86 -85 144t-224 58l-2 -856q4 -119 -78 -205t-200 -86q-117 0 -199 82t-82 199q0 115 82 198t199 83z" glyph-name="musicalnote" unicode="♪"/><glyph d="M279 539q90 0 165 -56v820l805 131l-2 -1035q4 -119 -78 -204.5t-200 -85.5q-117 0 -199 81.5t-82 198.5q0 115 82 197t199 82q94 0 164 -54v621l-574 -92v-875q4 -119 -79 -205t-201 -86q-115 0 -197 82t-82 199q0 115 82 198t197 83z" glyph-name="musicalnotedbl" unicode="♫"/><glyph d="M131 0v1434h985v-1434h-985zM623 983l301 336h-600zM246 115h755v1118l-378 -422l-377 422v-1118zM489 180h-180v113h180v-113z" glyph-name="uni2709" unicode="✉"/><glyph d="M911 264l11 -264h-652q-63 98 -61 309t65 309q-82 102 -81 183q0 117 102 190q-33 221 -27 443h226q49 -156 81 -322q78 -18 154 -108q2 127 35 452h254q37 -463 37 -700q-1 -240 -144 -492zM424 1321h-62q2 -78 17 -242q43 27 86 35q-10 60 -41 207zM336 115h471v192 l8 12q6 14 18.5 37t26.5 53.5t28.5 71.5t27 83t19.5 93.5t7 98.5q0 301 -20 587h-64q-41 -426 4 -612q14 -70 15 -153h-56q0 76 -84 190.5t-153 130.5l-43 -47q47 -117 172 -209q-43 -41 -75 -158.5t-32 -205.5h-57q-16 63 -6 169.5t39 155.5q-106 104 -162 285l115 117 q-6 2 -19 2q-49 0 -87 -31t-48 -82q-29 -156 154 -315l-39 -43q-129 117 -191 227q6 -123 162 -260l-39 -43q-10 8 -38 33.5t-38 35.5q-33 -59 -37 -186t21 -229z" glyph-name="uni270C" unicode="✌"/><glyph d="M1044 774l156 -131l-76 -88l-143 125q-18 -27 -49 -67t-51.5 -66.5t-30.5 -42.5q-6 -10 -9 -64.5t-1 -85.5h114v-354h-745v354h98q-27 80 -30 141.5t5.5 132t6.5 122.5q-2 55 -10.5 127.5t-10.5 106.5t7.5 95.5t33.5 141.5q4 2 10.5 5t11.5 5t9 2l-57 49l-109 135l33 39 l147 -84q8 59 82 60q57 0 182 -45.5t138 -47.5q41 -6 168 -141t170 -199q27 -37 18 -82t-68 -143zM840 115v137h-516v-137h516zM750 561q10 14 63 81t86 108l-336 290q2 -10 2 -30.5t2 -30.5q35 -68 123 -107l-12 -51q-45 8 -109 45v-94l-51 -6q-43 313 -65 346 q-14 18 -58 25q-23 -88 -25.5 -142.5t9.5 -124t14 -116.5q2 -31 -5 -117t1 -129q18 -96 41 -154h293q0 162 27 207zM741 1034l224 -192q55 80 41 100q-20 31 -137 162t-132 133l-280 104q8 -68 45 -106.5t79 -52t88.5 -50.5t71.5 -98z" glyph-name="uni270D" unicode="✍"/><glyph d="M479 0h-174v889h-180v141h180q0 205 112.5 314.5t264.5 109.5q123 0 223.5 -71.5t136.5 -211.5h-178q-53 131 -182 132q-82 0 -142.5 -66t-60.5 -207h582v-1030h-174v889h-408v-889z" glyph-name="uniFB01" unicode="ﬁ"/><glyph d="M479 0h-174v889h-180v141h180q0 221 115 322.5t299 101.5h342v-1454h-174v1303h-168q-115 0 -177.5 -58.5t-62.5 -214.5h240v-141h-240v-889z" glyph-name="uniFB02" unicode="ﬂ"/><glyph d="M1014 1030h174q0 -580 -209 -805t-743 -225h-175v1030h175v-463q344 0 344 463h174q0 -295 -134.5 -467t-383.5 -172v-217q438 0 608 187.5t170 668.5zM1196 1233h-201v201h201v-201z" glyph-name="uniFB2A" unicode="שׁ"/><glyph d="M1014 1030h174q0 -580 -209 -805t-743 -225h-175v1030h175v-463q344 0 344 463h174q0 -295 -134.5 -467t-383.5 -172v-217q438 0 608 187.5t170 668.5zM254 1233h-201v201h201v-201z" glyph-name="uniFB2B" unicode="שׂ"/><glyph d="M1014 1030h174q0 -580 -209 -805t-743 -225h-175v1030h175v-463q344 0 344 463h174q0 -295 -134.5 -467t-383.5 -172v-217q438 0 608 187.5t170 668.5zM668 414v202h200v-202h-200zM1196 1233h-201v201h201v-201z" glyph-name="uniFB2C" unicode="שּׁ"/><glyph d="M1014 1030h174q0 -580 -209 -805t-743 -225h-175v1030h175v-463q344 0 344 463h174q0 -295 -134.5 -467t-383.5 -172v-217q438 0 608 187.5t170 668.5zM668 414v202h200v-202h-200zM254 1233h-201v201h201v-201z" glyph-name="uniFB2D" unicode="שּׂ"/><glyph d="M770 174v420q0 135 -101.5 210t-248.5 75q-199 0 -348 -23v174q156 23 348 23q246 0 385 -120t139 -339v-420h152v-174h-1024v174h698zM319 414v202h201v-202h-201z" glyph-name="uniFB31" unicode="בּ"/><glyph d="M846 0l-141 358l-295 -358h-222l453 547v88q0 244 -221 244q-121 0 -219 -23v174q90 23 219 23q205 0 300 -99.5t95 -318.5v-88l205 -547h-174zM197 434v203h200v-203h-200z" glyph-name="uniFB32" unicode="גּ"/><glyph d="M924 0h-174v856h-699v174h1024v-174h-151v-856zM319 616h201v-202h-201v202z" glyph-name="uniFB33" unicode="דּ"/><glyph d="M516 879q-238 0 -358 -23v174q158 23 358 23q252 0 392.5 -102.5t140.5 -315.5v-635h-175v635q0 244 -358 244zM158 635h174v-635h-174v635zM502 414v202h200v-202h-200z" glyph-name="uniFB34" unicode="הּ"/><glyph d="M797 635v-635h-174v635q0 158 -16.5 201t-94.5 43q-61 0 -109 -23v174q47 23 109 23q100 0 158.5 -21.5t86 -81t34 -123t6.5 -192.5zM319 414v202h201v-202h-201z" glyph-name="uniFB35" unicode="וּ"/><glyph d="M662 0h-175v492q0 141 8.5 213.5t39.5 119.5l-166 54v174l512 -166v-174q-76 23 -111 22q-76 0 -92 -43t-16 -200v-492zM176 616h201v-202h-201v202z" glyph-name="uniFB36" unicode="זּ"/><glyph d="M624.5 143q145.5 0 216 57.5t70.5 194.5v217q0 164 -37.5 215.5t-125.5 51.5q-90 0 -164 -23v174q61 23 164 23q180 0 258.5 -98.5t78.5 -342.5v-217q0 -221 -108.5 -319.5t-352 -98.5t-352 98.5t-108.5 319.5v635h174v-635q0 -137 70.5 -194.5t216 -57.5zM524 414v202 h201v-202h-201z" glyph-name="uniFB38" unicode="טּ"/><glyph d="M797 635v-207h-174v207q0 158 -16.5 201t-94.5 43q-57 0 -109 -23v174q51 23 109 23q100 0 158.5 -21.5t86 -81t34 -123t6.5 -192.5zM299 537v202h201v-202h-201z" glyph-name="uniFB39" unicode="יּ"/><glyph d="M463 879q-199 0 -348 -23v174q156 23 348 23q246 0 384 -120t138 -339v-1020h-174v1020q0 135 -100.5 210t-247.5 75zM340 414v202h201v-202h-201z" glyph-name="uniFB3A" unicode="ךּ"/><glyph d="M496 152q195 0 272.5 88t77.5 276.5t-78 275.5t-272 87q-199 0 -349 -23v174q156 23 349 23q524 0 524 -537q0 -539 -524 -539q-172 0 -349 23v174q171 -22 349 -22zM340 616h201v-202h-201v202z" glyph-name="uniFB3B" unicode="כּ"/><glyph d="M711 858h-525l2 514h174l-2 -340h351q195 0 271.5 -75.5t76.5 -280.5q0 -174 -70.5 -314.5t-180.5 -220.5t-225.5 -120.5t-220.5 -40.5v174q57 0 138.5 29.5t170.5 87t151.5 165t62.5 240.5q0 45 -3 68.5t-18.5 55t-53.5 45t-99 13.5zM360 645h201v-203h-201v203z" glyph-name="uniFB3C" unicode="לּ"/><glyph d="M563 174h379v375q0 170 -61.5 250t-198.5 80q-57 0 -101 -20.5t-71 -46.5t-49.5 -77t-32.5 -87t-25 -99l-133 -549h-178l152 627l-152 403h174l66 -174q113 197 350 197q213 0 323.5 -130t110.5 -374v-549h-553v174zM565 616h201v-202h-201v202z" glyph-name="uniFB3E" unicode="מּ"/><glyph d="M924 612v-612h-666v174h492v438q0 160 -54.5 217.5t-150.5 57.5q-84 0 -185 -31v174q66 23 185 23q188 0 283.5 -100.5t95.5 -340.5zM373 414v202h200v-202h-200z" glyph-name="uniFB40" unicode="נּ"/><glyph d="M88 1030h612q135 0 225.5 -31.5t137.5 -70.5t69.5 -132.5t25.5 -158t3 -205.5v-37q0 -221 -108.5 -319.5t-352 -98.5t-352 98.5t-108.5 319.5v469h-152v166zM987 395q0 29 1 90.5t1 89t-4 77.5t-15.5 73t-31.5 55.5t-51 47t-78 25.5t-109 11h-286v-469 q0 -137 70.5 -194.5t216 -57.5t216 57.5t70.5 194.5zM606 414v202h201v-202h-201z" glyph-name="uniFB41" unicode="סּ"/><glyph d="M137 823v207q158 23 359 23q252 0 392 -102.5t140 -315.5v-217q0 -221 -108.5 -319.5t-352.5 -98.5h-381v166h381q145 0 216 57.5t71 194.5v217q0 244 -358 244q-123 0 -185 -5v-51q0 -143 28 -193t110 -50q78 0 135 22v-174q-57 -23 -135 -22q-195 0 -253.5 90.5 t-58.5 326.5zM616 414v202h201v-202h-201z" glyph-name="uniFB44" unicode="פּ"/><glyph d="M758 455q76 -59 114.5 -93t74.5 -88.5t36 -105.5q0 -66 -38 -120t-136 -54h-494v174h494q-14 51 -110.5 128t-215 175t-168.5 193q-49 92 -49 208v152h174v-152q0 -92 48.5 -163.5t136.5 -147.5q76 39 130 121t54 190v152h174v-152q0 -145 -61.5 -251.5t-163.5 -165.5z M319 209v203h201v-203h-201z" glyph-name="uniFB46" unicode="צּ"/><glyph d="M246 -426v1131h174v-1131h-174zM817 879h-571v174h571q197 0 273.5 -75t76.5 -280q0 -141 -54 -268t-141 -216t-184.5 -149.5t-193.5 -87.5v193q145 59 272 203.5t127 324.5q0 45 -3 67.5t-18.5 54.5t-53.5 45.5t-101 13.5zM586 678h200v-203h-200v203z" glyph-name="uniFB47" unicode="קּ"/><glyph d="M1014 1030h174q0 -580 -209 -805t-743 -225h-175v1030h175v-463q344 0 344 463h174q0 -295 -134.5 -467t-383.5 -172v-217q438 0 608 187.5t170 668.5zM668 414v202h200v-202h-200z" glyph-name="uniFB49" unicode="שּ"/><glyph d="M563 879h-125v-570q0 -176 -48 -252.5t-165 -76.5q-51 0 -112 20v174q39 -23 75 -22q14 0 25.5 3t19 10t13.5 13t9 18.5t5 20.5t3 23.5t1 22.5v23.5v22.5v563q-111 -8 -151 -16v174q156 23 450 23q252 0 392.5 -102.5t140.5 -315.5v-635h-174v635q-1 244 -359 244z M573 414v202h201v-202h-201z" glyph-name="uniFB4A" unicode="תּ"/><glyph d="M797 635v-635h-174v635q0 158 -16.5 201t-94.5 43q-61 0 -109 -23v174q47 23 109 23q100 0 158.5 -21.5t86 -81t34 -123t6.5 -192.5zM725 1233h-201v201h201v-201z" glyph-name="uniFB4B" unicode="וֹ"/><glyph d="M825 1434h56v-168h-56v168zM944 1114l119 -119l-39 -41l-119 121zM1122 1137h-168v57h168v-57zM1024 1374l39 -39l-119 -118l-39 38zM682 1374l119 -119l-39 -38l-119 118zM825 1194h56v-57h-56v57zM881 1065v-102q119 -70 188.5 -188t69.5 -259q0 -213 -150.5 -364.5 t-363.5 -151.5t-364.5 151.5t-151.5 364.5t151.5 363.5t364.5 150.5q35 0 51 -2l86 86l39 -39l-58 -59q45 -10 82 -27v76h56zM625 862v58q-168 0 -287 -119l41 -39q101 100 246 100zM584 1194h168v-57h-168v57z" glyph-name="u1F4A3" unicode="💣"/><glyph d="M624.5 1143q241.5 0 411.5 -170t170 -412t-170 -413t-411.5 -171t-412.5 171t-171 413t171 412t412.5 170zM624.5 90q194.5 0 332 138.5t137.5 332.5q0 193 -137.5 331t-332 138t-332.5 -137t-138 -331.5t138 -333t332.5 -138.5zM694 807h113v-180h-113v180zM440 807h113 v-180h-113v180zM848 336h-449v113h449v-113z" glyph-name="u1F610" unicode="😐"/><glyph glyph-name="glyph726"/><glyph d="M725 1636h-201v201h201v-201z" glyph-name="glyph727"/><glyph d="M624.5 1958q96.5 0 155 -58.5t58.5 -146.5t-58.5 -146.5t-155 -58.5t-154.5 58.5t-58 146.5t58 146.5t154.5 58.5zM624.5 1638q49.5 0 80 34t30.5 81q0 49 -30.5 82t-80 33t-80 -33t-30.5 -82q0 -47 30.5 -81t80 -34z" glyph-name="glyph728"/><glyph d="M825 1858h136q0 -150 -90.5 -238t-246 -88t-245.5 88t-90 238h135q0 -88 53 -139.5t147.5 -51.5t147.5 51.5t53 139.5z" glyph-name="glyph729"/><glyph d="M862 1882l90 -90l-264 -268h-127l-264 268l90 90l238 -244z" glyph-name="glyph730"/><glyph d="M952 1614l-90 -90l-237 243l-238 -243l-90 90l264 268h127z" glyph-name="glyph731"/><glyph d="M434 1509l-55 82l403 295l88 -139z" glyph-name="glyph732"/><glyph d="M905 1630h-561v146h561v-146z" glyph-name="glyph733"/><glyph d="M541 1636h-201v201h201v-201zM909 1636h-200v201h200v-201z" glyph-name="glyph734"/><glyph d="M467 1886l403 -295l-55 -82l-436 238z" glyph-name="glyph735"/><glyph d="M487 1702q-57 0 -133 -76l-80 88q125 123 213 123q53 0 142.5 -44t132.5 -44q66 0 133 68l80 -88q-117 -115 -213 -115q-53 0 -142.5 44t-132.5 44z" glyph-name="glyph736"/><glyph d="M219 1509l-57 82l403 295l90 -139zM649 1509l-55 82l403 295l90 -139z" glyph-name="glyph737"/><glyph d="M862 1479l90 -90l-264 -269h-129l-262 269l88 90l240 -244z" glyph-name="glyph738"/><glyph d="M825 1454h136q0 -150 -90.5 -238t-246 -88t-245.5 88.5t-90 237.5h135q0 -88 53 -139t147.5 -51t147.5 51t53 139z" glyph-name="glyph739"/><glyph d="M434 1106l-57 82l403 295l90 -140z" glyph-name="glyph740"/><glyph d="M434 1106l-57 82l403 295l90 -140z" glyph-name="glyph741"/><glyph d="M541 1233h-203v201h203v-201zM909 1233h-200v201h200v-201z" glyph-name="glyph742"/><glyph d="M559 -16q-180 18 -291.5 131.5t-111.5 287.5h180q6 -123 76.5 -194.5t191.5 -71.5q123 0 202 72t79 192q0 125 -84 193t-215 68h-60v155h60q125 0 195.5 64.5t70.5 179.5q0 109 -62.5 170t-183.5 61q-117 0 -188.5 -62.5t-71.5 -199.5h-178q0 178 120 301t298 123 q201 0 322.5 -111.5t121.5 -275.5q0 -115 -60.5 -202t-152.5 -126q113 -35 179.5 -132t66.5 -204q0 -174 -92 -283.5t-254 -131.5q55 -59 66.5 -133t-18.5 -135.5t-102.5 -103.5t-173.5 -42q-35 0 -71 6v166q35 -14 71 -14q72 0 100.5 44t17.5 100.5t-48 107.5z" glyph-name="glyph743"/><glyph d="M600 -16q-127 16 -208 95t-83 210h172q2 -74 53.5 -118t129 -44t132 39t54.5 123q0 170 -203 170h-45v149h45q86 0 135 43t49 111q0 63 -49 103t-127 40q-68 0 -117 -38t-49 -122h-172q0 143 91.5 226.5t238.5 83.5q164 0 257 -78t93 -215q0 -168 -149 -221 q78 -18 126 -90t48 -162q0 -119 -72.5 -198t-191.5 -103q57 -59 68.5 -132t-18.5 -135.5t-103.5 -104.5t-174.5 -42q-35 0 -71 6v166q35 -14 71 -14q72 0 100.5 44t17.5 101.5t-48 106.5z" glyph-name="glyph744"/></font>
</defs>
</svg>
